<?xml version="1.0" standalone="no"?>
<!DOCTYPE svg PUBLIC "-//W3C//DTD SVG 1.1//EN" "http://www.w3.org/Graphics/SVG/1.1/DTD/svg11.dtd" >
<svg xmlns="http://www.w3.org/2000/svg">
<metadata>Generated by IcoMoon</metadata>
<defs>
<font id="bbqicon" horiz-adv-x="1024">
<font-face units-per-em="1024" ascent="960" descent="-64" />
<missing-glyph horiz-adv-x="1024" />
<glyph unicode="&#x20;" horiz-adv-x="512" d="" />
<glyph unicode="&#xe900;" glyph-name="app-ageVerification" d="M1018.368 58.88l-476.416 841.216c-6.156 9.053-16.409 14.921-28.032 14.921s-21.876-5.868-27.957-14.804l-0.075-0.117-480-837.376c-3.67-5.3-5.863-11.866-5.863-18.944 0-18.513 15-33.522 33.51-33.536h0.001l956.672-3.84c0.002 0 0.004 0 0.006 0 18.663 0 33.792 15.129 33.792 33.792 0 6.962-2.106 13.433-5.715 18.809l0.077-0.121zM569.6 153.6c-1.218-17.951-16.077-32.051-34.23-32.051-0.656 0-1.309 0.018-1.956 0.055l0.090-0.004h-43.008c-0.558-0.032-1.21-0.051-1.866-0.051-18.153 0-33.012 14.1-34.224 31.945l-0.006 0.105v38.4c1.218 17.951 16.077 32.051 34.23 32.051 0.656 0 1.309-0.018 1.956-0.055l-0.090 0.004h43.008c0.558 0.032 1.21 0.051 1.866 0.051 18.153 0 33.012-14.1 34.224-31.945l0.006-0.105zM569.6 348.672c0-17.673-14.327-32-32-32v0h-51.2c-17.673 0-32 14.327-32 32v0 224c-0.001 0.076-0.001 0.167-0.001 0.257 0 17.532 14.212 31.744 31.744 31.744 0.090 0 0.181 0 0.271-0.001h51.186c0.076 0.001 0.167 0.001 0.257 0.001 17.532 0 31.744-14.212 31.744-31.744 0-0.090 0-0.181-0.001-0.271v0.014z" />
<glyph unicode="&#xe901;" glyph-name="app-baseEraser" d="M927.488 640l-332.8-94.976c51.2 172.032 102.4 356.608 98.304 392.192 0 0-281.6-8.192-289.28-446.976l-128-36.608c-26.751 34.541-68.232 56.563-114.857 56.563-27.231 0-52.708-7.512-74.471-20.577l0.656 0.365c-47.395-26.765-78.87-76.805-78.87-134.195 0-24.785 5.87-48.199 16.297-68.928l-0.402 0.883c24.906-44.768 71.935-74.557 125.922-74.557 27.339 0 52.894 7.639 74.647 20.899l-0.633-0.359c30.054 17.253 53.412 43.253 66.935 74.5l0.393 1.020q65.28 4.608 122.112 11.52c1.792-16.128 4.096-32.768 6.4-49.664v0c-86.715-3.001-155.872-74.019-155.872-161.189 0-89.072 72.208-161.28 161.28-161.28s161.28 72.208 161.28 161.28c0 1.138-0.012 2.274-0.035 3.407l0.003-0.169c-1.12 58.543-33.514 109.274-81.127 136.29l-0.793 0.414c6.144 19.2 15.872 51.2 27.648 88.576 475.136 87.808 395.264 301.568 395.264 301.568zM179.2 296.192c-7.986-3.428-17.28-5.421-27.039-5.421-29.349 0-54.488 18.025-64.951 43.609l-0.169 0.468c-2.336 6.757-3.686 14.545-3.686 22.647 0 31.046 19.808 57.465 47.474 67.31l0.499 0.155c7.925 3.371 17.144 5.33 26.82 5.33 29.315 0 54.429-17.983 64.914-43.519l0.17-0.467c2.353-6.78 3.712-14.595 3.712-22.728 0-30.96-19.699-57.32-47.246-67.228l-0.498-0.156zM480.768 449.792c0.151 0.003 0.329 0.004 0.507 0.004 16.118 0 29.184-13.066 29.184-29.184s-13.066-29.184-29.184-29.184c-15.936 0-28.889 12.773-29.179 28.64v0.027c-0.012 0.308-0.018 0.67-0.018 1.034 0 15.854 12.642 28.756 28.396 29.174l0.039 0.001zM499.456 107.776c-0.020-42.401-34.397-76.765-76.8-76.765-42.415 0-76.8 34.385-76.8 76.8 0 41.605 33.084 75.484 74.378 76.763l0.118 0.003c0.16 0.001 0.349 0.002 0.539 0.002 42.544 0 77.167-33.915 78.307-76.184l0.002-0.105zM753.152 687.104c-8.067 0.032-15.377 3.248-20.743 8.455l0.007-0.007c-5.356 5.332-8.67 12.711-8.67 20.864s3.314 15.532 8.669 20.863l0.001 0.001 18.432 18.944c5.419 5.582 12.993 9.045 21.376 9.045 16.448 0 29.781-13.333 29.781-29.781 0-8.065-3.206-15.381-8.412-20.743l0.007 0.007-18.432-18.688c-5.32-5.536-12.786-8.976-21.056-8.976-0.338 0-0.674 0.006-1.009 0.017l0.049-0.001zM854.272 790.784c-0.015 0-0.032 0-0.050 0-7.976 0-15.198 3.228-20.431 8.449l0.001-0.001c-5.309 5.401-8.587 12.814-8.587 20.992s3.278 15.591 8.591 20.996l-0.004-0.004 18.432 18.944c5.401 5.309 12.814 8.587 20.992 8.587s15.591-3.278 20.996-8.591l-0.004 0.004c5.37-5.373 8.692-12.795 8.692-20.992s-3.321-15.619-8.692-20.992v0l-18.432-18.944c-5.349-5.23-12.675-8.457-20.755-8.457-0.263 0-0.526 0.003-0.788 0.010l0.039-0.001zM968.704 894.72c-0.193-0.004-0.42-0.007-0.647-0.007-8.112 0-15.47 3.225-20.864 8.462l0.007-0.007c-5.356 5.332-8.67 12.711-8.67 20.864s3.314 15.532 8.669 20.863l0.001 0.001 18.432 18.944c5.45 5.515 13.014 8.93 21.376 8.93 16.596 0 30.050-13.454 30.050-30.050 0-8.234-3.312-15.695-8.677-21.123l-18.429-18.685c-5.245-5.078-12.402-8.208-20.29-8.208-0.337 0-0.672 0.006-1.006 0.017l0.049-0.001z" />
<glyph unicode="&#xe902;" glyph-name="app-baseLive" d="M709.888 384l-197.888 360.192-196.352-360.192-196.864-361.728h788.224zM249.088 51.2h-85.248l43.264 76.8 41.984 75.008 84.992-151.808zM512.512 51.2h-84.992l43.008 76.8 41.472 73.472 41.984-75.008 43.264-76.8zM691.712 51.2l43.008 76.8 42.24 75.008 42.24-76.544 43.008-76.8h-171.008zM518.144 741.888l70.144 127.232-11.264 6.144-57.856-105.216v121.856h-12.8v-122.624l-57.856 105.984-11.008-6.144 69.376-127.488 5.632 3.072h0.256l5.376-2.816zM286.464 744.96s-109.568-91.392-67.584-209.408l-33.536-22.016s-67.84 141.056 74.496 259.84zM192.256 852.736c-87.431-60.293-144.003-159.898-144.003-272.716 0-36.295 5.855-71.222 16.672-103.888l-0.669 2.332-45.312-25.6s-95.744 270.592 151.808 446.464zM737.536 737.536s109.568-91.648 67.584-209.408l33.536-22.016s67.84 141.056-74.496 259.84zM831.744 844.8c87.431-60.293 144.003-159.898 144.003-272.716 0-36.295-5.855-71.222-16.672-103.888l0.669 2.332 45.312-24.32s95.744 270.592-151.808 445.696z" />
<glyph unicode="&#xe903;" glyph-name="app-blog" d="M1014.528 627.712l-324.864 335.616c-5.753 5.793-13.721 9.38-22.528 9.38s-16.775-3.586-22.526-9.378l-0.002-0.002-548.864-559.872c-4.052-4.208-7.011-9.497-8.403-15.39l-0.045-0.226-87.296-397.312c-0.335-1.841-0.527-3.961-0.527-6.125 0-19.794 16.046-35.84 35.84-35.84 1.449 0 2.877 0.086 4.281 0.253l-0.17-0.016 416 68.352c6.982 1.186 13.045 4.487 17.658 9.21l541.446 556.038c5.808 5.794 9.401 13.805 9.401 22.656s-3.593 16.862-9.401 22.655l-0.001 0.001zM330.496 58.88l-147.456-20.224c-1.612-0.279-3.468-0.438-5.362-0.438-9.486 0-18.039 4-24.062 10.405l-0.016 0.017-55.296 58.112c-5.409 5.57-8.744 13.181-8.744 21.57 0 2.059 0.201 4.072 0.584 6.019l-0.032-0.196 29.696 147.456c4.932 14.943 18.769 25.537 35.081 25.537 9.334 0 17.858-3.469 24.352-9.188l-0.041 0.035 169.472-185.6c5.886-5.688 9.541-13.652 9.541-22.47 0-16.010-12.047-29.207-27.571-31.020l-0.146-0.014z" />
<glyph unicode="&#xe904;" glyph-name="app-bulkDispatch" d="M234.496 68.864c0-0.074 0.001-0.163 0.001-0.251 0-30.963-25.101-56.064-56.064-56.064s-56.064 25.101-56.064 56.064c0 30.963 25.101 56.064 56.064 56.064 0.27 0 0.539-0.002 0.808-0.006h-0.041c30.544-0.431 55.155-25.222 55.296-55.794v-0.014zM872.704 68.864c0-0.076 0.001-0.166 0.001-0.255 0-30.963-25.101-56.064-56.064-56.064s-56.064 25.101-56.064 56.064c0 30.963 25.101 56.064 56.064 56.064 0.090 0 0.18 0 0.269-0.001h-0.014c30.822 0 55.808-24.986 55.808-55.808v0zM1007.104 899.072c-7.419 6.059-16.994 9.731-27.427 9.731-0.168 0-0.335-0.001-0.502-0.003h0.025c-14.017-0.048-26.521-6.49-34.752-16.559l-0.064-0.081-98.048-122.624-52.736-532.736h-682.496c-15.411 0-27.904-12.493-27.904-27.904v0-55.296c0-15.411 12.493-27.904 27.904-27.904v0h772.864c0.076-0.001 0.166-0.001 0.256-0.001 15.411 0 27.904 12.493 27.904 27.904 0 0 0 0.001 0 0.001v0 55.296c-0.141 15.265-12.405 27.619-27.621 27.904h-0.027l48.384 497.664 81.408 102.4c6.076 7.611 9.751 17.373 9.751 27.992 0 14.083-6.461 26.657-16.581 34.919l-0.081 0.064zM189.696 270.336h554.24c9.331 0 16.896 7.565 16.896 16.896v0 313.6c0 9.331-7.565 16.896-16.896 16.896h-231.936v-123.136h-89.6v123.136h-232.704c-9.331 0-16.896-7.565-16.896-16.896v0 0-313.6c0-9.331 7.565-16.896 16.896-16.896v0zM231.68 651.264h470.272c0.076-0.001 0.166-0.002 0.256-0.002 9.19 0 16.64 7.45 16.64 16.64 0 0.001 0 0.001 0 0.002v0 190.464c0 9.331-7.565 16.896-16.896 16.896v0h-189.952v-89.6h-89.6v89.6h-190.72c-9.274-0.142-16.754-7.622-16.896-16.883v-190.477c0.144-9.221 7.653-16.64 16.894-16.64 0.001 0 0.001 0 0.002 0v0z" />
<glyph unicode="&#xe905;" glyph-name="app-chargeback" d="M887.808 773.12c-69.943 5.348-133.971 26.446-189.905 59.727l2.001-1.103c-39.050 21.575-72.534 43.951-103.983 68.79l1.583-1.206c-14.879 12.67-28.34 25.807-40.868 39.796l-0.348 0.396-20.992 23.040c-5.867 6.364-14.246 10.337-23.552 10.337s-17.685-3.973-23.532-10.314l-20.756-22.806c-14.64-16.053-30.109-30.711-46.583-44.184l-0.777-0.616c-25.294-19.649-53.802-38.935-83.545-56.34l-3.751-2.028c-55.571-34.728-121.829-57.719-192.903-63.884l-1.657-0.116c-16.609-1.744-29.443-15.673-29.443-32.599 0-0.149 0.001-0.299 0.003-0.448v0.023-378.368c-0.001-0.215-0.001-0.469-0.001-0.724 0-100.236 51.253-188.502 128.982-240.020l1.067-0.665 256-165.888c4.905-3.258 10.93-5.199 17.408-5.199s12.503 1.941 17.525 5.272l-0.117-0.073 256 165.888c78.638 52.035 129.794 140.094 129.794 240.102 0 0.369-0.001 0.738-0.002 1.107v-0.057 381.44c0.013 0.326 0.020 0.709 0.020 1.093 0 15.687-12.164 28.533-27.574 29.621l-0.094 0.005z" />
<glyph unicode="&#xe906;" glyph-name="app-clubT" d="M754.688 970.24c-2.598 0.753-5.582 1.186-8.668 1.186-12.855 0-23.953-7.519-29.136-18.399l-0.084-0.195c-36.688-78.606-115.061-132.101-205.929-132.101-0.503 0-1.006 0.002-1.508 0.005h0.077c-0.501-0.004-1.094-0.007-1.687-0.007-89.27 0-166.044 53.505-200.002 130.195l-0.552 1.396c-5.172 11.323-16.398 19.049-29.428 19.049-3.010 0-5.923-0.412-8.687-1.183l0.227 0.054-246.272-74.24c-13.661-3.953-23.481-16.35-23.481-31.039 0-1.876 0.16-3.715 0.468-5.504l-0.027 0.192 53.76-247.808c3.181-14.703 16.061-25.564 31.484-25.6h81.412c0.076 0.001 0.166 0.001 0.256 0.001 17.814 0 32.256-14.442 32.256-32.256 0 0 0-0.001 0-0.001v0l-3.584-571.648c-0.010-0.305-0.016-0.664-0.016-1.024 0-17.956 14.556-32.512 32.512-32.512 0.006 0 0.011 0 0.017 0h568.831c0.076-0.001 0.166-0.001 0.256-0.001 17.814 0 32.256 14.442 32.256 32.256 0 0 0 0.001 0 0.001v0 573.184c0 0 0 0.001 0 0.001 0 17.673 14.327 32 32 32 0.090 0 0.18 0 0.27-0.001h76.786c15.427 0.036 28.307 10.897 31.449 25.387l0.039 0.213 54.016 247.808c0.28 1.597 0.441 3.436 0.441 5.313 0 14.69-9.82 27.086-23.253 30.983l-0.228 0.057z" />
<glyph unicode="&#xe907;" glyph-name="app-coinFunding" d="M508.928 634.88c-281.088 0-508.928-99.84-508.928-222.72 0-3.072 0-6.4 0-9.472 0.065-0.5 0.102-1.077 0.102-1.664s-0.037-1.164-0.109-1.731l0.007 0.067c15.872-117.76 237.568-209.92 508.928-209.92s492.8 92.16 507.904 209.92c0 0 0 2.304 0 3.328s0 6.4 0 9.472c0.768 122.88-227.072 222.72-507.904 222.72zM508.928 125.952c-4.97-0.090-10.832-0.141-16.706-0.141-132.291 0-258.53 25.909-373.921 72.929l6.627-2.388c-48.226 19.894-89.614 46.662-125.199 79.608l0.271-0.248v-98.816c0-3.328 0-6.4 0-9.472 0.642-6.735 1.908-12.909 3.759-18.823l-0.175 0.647c2.36-8.128 5.322-15.176 8.978-21.788l-0.274 0.54 2.56-4.864c6.083-10.357 12.598-19.317 19.879-27.585l-0.167 0.193 2.816-2.816c25.507-25.739 55.506-46.974 88.731-62.441l1.893-0.791 15.36-7.168h1.792l15.872-6.912c13.392-5.84 30.806-12.194 48.608-17.664l3.872-1.024 16.896-5.12h2.816l15.36-4.096h4.096c15.872-3.84 32.512-7.68 49.408-11.008h2.048l16.128-3.072h3.328l16.128-2.56h3.84c16.64-2.56 33.536-4.608 51.2-6.4h2.56c23.552-2.304 47.616-3.84 71.936-4.608h2.816q17.664 0 36.096 0c12.032 0 24.064 0 35.84 0h2.816c25.6 0 48.384 2.304 71.936 4.608h2.56c17.408 1.792 34.304 3.84 51.2 6.4h3.584l16.128 2.56h3.328l16.128 3.072h2.048c16.896 3.328 33.536 7.168 49.408 11.008h4.096l15.36 4.096h3.072l16.896 5.12c21.187 6.543 38.162 12.889 54.709 20.037l-3.509-1.349 15.872 6.912h1.792l15.36 7.168c29.323 14.394 54.581 31.469 77.15 51.505l-0.35-0.305c4.457 4.035 8.554 8.213 12.393 12.622l0.151 0.178 2.816 2.816 9.728 11.776c3.266 4.381 6.566 9.397 9.578 14.6l0.406 0.76c0.925 1.393 1.783 2.993 2.488 4.672l0.072 0.192c3.195 5.99 5.989 12.962 8.017 20.254l0.175 0.738c1.676 5.267 2.942 11.441 3.555 17.805l0.029 0.371c0 3.072 0 6.144 0 9.472v98.56c-34.916-32.534-75.771-59.27-120.672-78.334l-2.72-1.026c-108.833-44.599-235.145-70.487-367.503-70.487-4.63 0-9.253 0.032-13.867 0.095l0.699-0.008zM570.368 831.232c-21.282 16.166-47.608 26.754-76.263 29.148l-0.537 0.036c29.199 2.643 55.491 13.294 77.175 29.712l-0.375-0.272c16.207 21.283 26.87 47.591 29.4 76.236l0.040 0.564c2.606-29.169 13.164-55.457 29.464-77.19l-0.28 0.39c21.324-16.11 47.607-26.754 76.208-29.396l0.592-0.044c-29.184-2.49-55.497-13.067-77.174-29.455l0.374 0.271c-16.020-21.343-26.578-47.631-29.142-76.221l-0.042-0.579c-2.57 29.209-13.233 55.517-29.706 77.165l0.266-0.365zM833.536 716.8c-30.126 22.686-67.324 37.542-107.783 40.909l-0.761 0.051c41.22 3.418 78.418 18.274 109.081 41.347l-0.537-0.387c22.638 30.147 37.483 67.331 40.907 107.769l0.053 0.775c3.424-41.255 18.378-78.464 41.592-109.062l-0.376 0.518c30.116-22.333 67.251-36.848 107.588-39.894l0.7-0.042c-41.235-3.729-78.33-18.931-108.78-42.347l0.492 0.363c-22.838-30.080-37.792-67.289-41.165-107.788l-0.051-0.756c-3.477 41.213-18.322 78.397-41.351 109.089l0.391-0.545z" />
<glyph unicode="&#xe908;" glyph-name="app-conversion" d="M478.464 536.32v406.528c0.001 0.073 0.001 0.16 0.001 0.247 0 16.542-13.41 29.952-29.952 29.952-1.354 0-2.687-0.090-3.994-0.264l0.153 0.017c-203.054-27.308-367.466-167.66-429.277-354.702l-1.059-3.698c-0.96-2.807-1.515-6.041-1.515-9.405 0-14.725 10.626-26.969 24.629-29.48l0.182-0.027 405.76-69.632c1.544-0.282 3.321-0.444 5.135-0.444 16.542 0 29.952 13.41 29.952 29.952 0 0.336-0.006 0.671-0.017 1.004l0.001-0.049zM570.88 859.136l-7.68-419.84c0.003-0.151 0.004-0.329 0.004-0.508 0-16.259-13.181-29.44-29.44-29.44-1.356 0-2.69 0.092-3.997 0.269l0.152-0.017-421.632 64.512c-1.323 0.213-2.849 0.334-4.402 0.334-15.515 0-28.202-12.107-29.13-27.388l-0.004-0.082c0-8.704 0-17.664 0-25.6 0.913-258.184 210.422-467.13 468.733-467.13 258.876 0 468.736 209.86 468.736 468.736 0 237.573-176.743 433.866-405.914 464.563l-2.403 0.263c-1.154 0.162-2.487 0.254-3.841 0.254-16.027 0-29.037-12.919-29.183-28.912v-0.014z" />
<glyph unicode="&#xe909;" glyph-name="app-coupon" d="M1017.344 649.216l-315.648 314.112c-6.024 5.824-14.241 9.412-23.296 9.412s-17.272-3.589-23.305-9.421l0.009 0.009-113.152-112.384c1.919-2.731 3.637-5.849 5.002-9.149l0.118-0.323c1.299-3.011 2.365-6.533 3.027-10.195l0.045-0.301c0.813-3.229 1.279-6.936 1.279-10.752s-0.466-7.523-1.345-11.067l0.066 0.315c-0.708-3.867-1.773-7.301-3.191-10.545l0.119 0.305c-2.837-7.014-6.918-12.984-12.017-17.906l-0.015-0.014c-9.924-9.975-23.661-16.148-38.84-16.148-11.825 0-22.776 3.747-31.728 10.118l0.168-0.114-457.984-456.448c-6.055-5.871-9.813-14.081-9.813-23.168s3.758-17.297 9.805-23.16l0.008-0.008 315.648-314.112c6.024-5.824 14.241-9.412 23.296-9.412s17.272 3.589 23.305 9.421l-0.009-0.009 457.472 454.656c-2.608 1.746-4.874 3.687-6.889 5.863l-0.023 0.025c-2.449 2.481-4.717 5.155-6.774 7.992l-0.138 0.2c-1.851 2.787-3.566 5.985-4.977 9.344l-0.143 0.384c-1.149 2.84-2.207 6.263-2.988 9.791l-0.084 0.449c-0.18 1.613-0.283 3.482-0.283 5.376s0.103 3.763 0.303 5.604l-0.020-0.228c0.246 19.216 10.302 36.030 25.38 45.692l0.22 0.132c2.732 1.986 5.855 3.709 9.185 5.021l0.287 0.099c2.971 1.432 6.419 2.507 10.041 3.048l0.199 0.024c3.502 0.778 7.524 1.224 11.65 1.224 15.435 0 29.414-6.238 39.552-16.33l-0.002 0.002c2.026-2.109 3.955-4.363 5.75-6.723l0.138-0.189 113.92 113.152c5.13 5.689 8.268 13.26 8.268 21.565 0 9.931-4.488 18.813-11.546 24.73l-0.050 0.041zM656.384 659.968c-10.041-10.023-23.864-16.26-39.144-16.384h-0.024c-0.067 0-0.147 0-0.227 0-30.681 0-55.552 24.871-55.552 55.552s24.871 55.552 55.552 55.552c30.681 0 55.552-24.871 55.552-55.552 0-15.284-6.172-29.126-16.16-39.17l0.003 0.003zM776.96 539.392c-10.038-9.968-23.869-16.128-39.138-16.128-0.011 0-0.021 0-0.032 0h0.002c-30.398 0-55.040 24.642-55.040 55.040v0c0.021 15.275 6.176 29.108 16.133 39.173l-0.005-0.005c10.001 9.971 23.8 16.136 39.040 16.136s29.039-6.165 39.041-16.137l-0.001 0.001c10.14-9.993 16.473-23.825 16.64-39.136v-0.032c-0.119-15.271-6.467-29.037-16.626-38.899l-0.014-0.013z" />
<glyph unicode="&#xe90a;" glyph-name="app-csvLite" d="M463.104 972.8h-318.976c-0.711 0.043-1.541 0.067-2.378 0.067-22.31 0-40.556-17.402-41.904-39.373l-0.006-0.119v-945.152c1.354-22.089 19.6-39.491 41.91-39.491 0.837 0 1.667 0.024 2.492 0.073l-0.114-0.005h735.744c0.711-0.043 1.541-0.067 2.378-0.067 22.31 0 40.556 17.402 41.904 39.373l0.006 0.119v563.2c-1.354 22.089-19.6 39.491-41.91 39.491-0.837 0-1.667-0.024-2.492-0.073l0.114 0.005h-328.192c-0.787-0.053-1.707-0.083-2.634-0.083-22.174 0-40.309 17.296-41.649 39.133l-0.006 0.118v303.36c-1.354 22.089-19.6 39.491-41.91 39.491-0.837 0-1.667-0.024-2.492-0.073l0.114 0.005zM888.832 680.448h-270.592c-17.108 0-30.976 13.868-30.976 30.976v0 230.4c0 0.027 0 0.058 0 0.089 0 17.108 13.868 30.976 30.976 30.976 7.748 0 14.831-2.845 20.263-7.546l-0.039 0.033 270.592-230.4c6.416-5.745 10.436-14.054 10.436-23.301 0-17.048-13.659-30.905-30.63-31.226h-0.030z" />
<glyph unicode="&#xe90b;" glyph-name="app-deliveryDate" d="M512 908.8c-247.424 0-448-200.576-448-448s200.576-448 448-448c247.424 0 448 200.576 448 448v0c-0.146 247.365-200.635 447.854-447.986 448h-0.014zM763.904 416h-251.904c-24.742 0-44.8 20.058-44.8 44.8v0 307.2c0 24.742 20.058 44.8 44.8 44.8s44.8-20.058 44.8-44.8v0-262.4h207.104c24.742 0 44.8-20.058 44.8-44.8s-20.058-44.8-44.8-44.8v0z" />
<glyph unicode="&#xe90c;" glyph-name="camera" d="M947.2 716.8h-181.248c-1.39 4.681-3.22 8.756-5.508 12.522l0.132-0.234-54.528 90.112c-8.923 15.254-25.143 25.387-43.746 25.6h-300.574c-18.633-0.213-34.853-10.346-43.645-25.358l-0.131-0.242-54.528-90.112c-2.156-3.532-3.986-7.607-5.28-11.915l-0.096-0.373h-181.248c-42.415 0-76.8-34.385-76.8-76.8v0-486.4c0-42.415 34.385-76.8 76.8-76.8v0h870.4c42.415 0 76.8 34.385 76.8 76.8v0 486.4c0 42.415-34.385 76.8-76.8 76.8v0zM512 140.8c-141.385 0-256 114.615-256 256v0c0.076 29.144 4.943 57.126 13.854 83.235l-0.542-1.827c34.637 103.107 130.398 176.064 243.2 176.064s208.564-72.957 242.673-174.259l0.527-1.805c7.8-23.592 12.3-50.749 12.3-78.957 0-0.862-0.004-1.722-0.013-2.582l0.001 0.131c0-141.385-114.615-256-256-256v0zM768 588.8c-17.39 0-31.488 14.098-31.488 31.488s14.098 31.488 31.488 31.488c17.39 0 31.488-14.098 31.488-31.488v0c0-17.39-14.098-31.488-31.488-31.488v0zM512 576c-75.874-0.093-140.692-47.326-166.748-113.981l-0.42-1.219c-7.616-19.148-12.032-41.337-12.032-64.556 0-98.969 80.231-179.2 179.2-179.2s179.2 80.231 179.2 179.2c0 23.22-4.416 45.408-12.455 65.771l0.423-1.215c-26.476 67.874-91.294 115.107-167.156 115.2h-0.012z" />
<glyph unicode="&#xe90d;" glyph-name="check" d="M369.664 120.576l-264.96 264.96c-4.601 4.627-7.444 11.006-7.444 18.048s2.844 13.421 7.446 18.049l54.271 54.271c4.627 4.601 11.006 7.444 18.048 7.444s13.421-2.844 18.049-7.446l-0.001 0.001 192.768-192.512 448.512 448.512c4.64 4.677 11.070 7.572 18.176 7.572s13.536-2.895 18.174-7.571l54.274-54.274c4.601-4.627 7.444-11.006 7.444-18.048s-2.844-13.421-7.446-18.049l-521.215-520.959c-4.627-4.601-11.006-7.444-18.048-7.444s-13.421 2.844-18.049 7.446l0.001-0.001z" />
<glyph unicode="&#xe90e;" glyph-name="clock" d="M512 908.8c-247.424 0-448-200.576-448-448s200.576-448 448-448c247.424 0 448 200.576 448 448v0c-0.146 247.365-200.635 447.854-447.986 448h-0.014zM819.2 435.2c0-14.138-11.462-25.6-25.6-25.6v0h-307.2c-14.138 0-25.6 11.462-25.6 25.6v0 307.2c0 14.138 11.462 25.6 25.6 25.6v0h51.2c14.138 0 25.6-11.462 25.6-25.6v0-230.4h230.4c14.138 0 25.6-11.462 25.6-25.6v0z" />
<glyph unicode="&#xe90f;" glyph-name="cross" d="M602.624 460.8l320.512 320.768c4.601 4.627 7.444 11.006 7.444 18.048s-2.844 13.421-7.446 18.049l-54.271 54.271c-4.627 4.601-11.006 7.444-18.048 7.444s-13.421-2.844-18.049-7.446l-320.767-320.511-320.768 320.512c-4.627 4.601-11.006 7.444-18.048 7.444s-13.421-2.844-18.049-7.446l-54.271-54.271c-4.601-4.627-7.444-11.006-7.444-18.048s2.844-13.421 7.446-18.049l320.511-320.767-320.512-320.768c-4.601-4.627-7.444-11.006-7.444-18.048s2.844-13.421 7.446-18.049l54.271-54.271c4.627-4.601 11.006-7.444 18.048-7.444s13.421 2.844 18.049 7.446l320.767 320.511 320.768-320.512c4.627-4.601 11.006-7.444 18.048-7.444s13.421 2.844 18.049 7.446l54.271 54.271c4.601 4.627 7.444 11.006 7.444 18.048s-2.844 13.421-7.446 18.049l0.001-0.001z" />
<glyph unicode="&#xe910;" glyph-name="drag" d="M153.6 780.8h716.8c14.138 0 25.6-11.462 25.6-25.6v-76.8c0-14.138-11.462-25.6-25.6-25.6h-716.8c-14.138 0-25.6 11.462-25.6 25.6v76.8c0 14.138 11.462 25.6 25.6 25.6zM153.6 268.8h716.8c14.138 0 25.6-11.462 25.6-25.6v-76.8c0-14.138-11.462-25.6-25.6-25.6h-716.8c-14.138 0-25.6 11.462-25.6 25.6v76.8c0 14.138 11.462 25.6 25.6 25.6zM153.6 524.8h716.8c14.138 0 25.6-11.462 25.6-25.6v-76.8c0-14.138-11.462-25.6-25.6-25.6h-716.8c-14.138 0-25.6 11.462-25.6 25.6v76.8c0 14.138 11.462 25.6 25.6 25.6z" />
<glyph unicode="&#xe911;" glyph-name="app-deliveryNote" d="M512 908.8c-247.424 0-448-200.576-448-448s200.576-448 448-448c247.424 0 448 200.576 448 448v0c-0.146 247.365-200.635 447.854-447.986 448h-0.014zM729.088 386.816l-197.12-204.8c-5.009-5.325-12.101-8.641-19.968-8.641s-14.959 3.316-19.955 8.627l-0.013 0.014-197.12 204.8c-4.335 4.791-6.989 11.174-6.989 18.178 0 14.987 12.149 27.136 27.136 27.136 0.117 0 0.234-0.001 0.35-0.002h92.142v272.896c0 15.104 6.656 21.76 21.76 21.76h165.376c15.104 0 21.76-6.656 21.76-21.76v-272.896h92.16c0.099 0.001 0.216 0.002 0.333 0.002 14.987 0 27.136-12.149 27.136-27.136 0-7.004-2.653-13.387-7.009-18.201l0.021 0.023z" />
<glyph unicode="&#xe912;" glyph-name="loupe" d="M957.184 105.984l-196.608 196.608c44.443 61.845 71.073 139.092 71.073 222.559 0 212.077-171.923 384-384 384s-384-171.923-384-384c0-212.077 171.923-384 384-384 83.467 0 160.714 26.63 223.708 71.857l-1.149-0.785 196.608-196.608c4.627-4.601 11.006-7.444 18.048-7.444s13.421 2.844 18.049 7.446l54.271 54.271c4.601 4.627 7.444 11.006 7.444 18.048s-2.844 13.421-7.446 18.049l0.001-0.001zM448 268.8c-141.385 0-256 114.615-256 256s114.615 256 256 256c141.385 0 256-114.615 256-256v0c0-141.385-114.615-256-256-256v0z" />
<glyph unicode="&#xe913;" glyph-name="menu" d="M153.6 844.8h716.8c14.138 0 25.6-11.462 25.6-25.6v-76.8c0-14.138-11.462-25.6-25.6-25.6h-716.8c-14.138 0-25.6 11.462-25.6 25.6v76.8c0 14.138 11.462 25.6 25.6 25.6zM153.6 204.8h716.8c14.138 0 25.6-11.462 25.6-25.6v-76.8c0-14.138-11.462-25.6-25.6-25.6h-716.8c-14.138 0-25.6 11.462-25.6 25.6v76.8c0 14.138 11.462 25.6 25.6 25.6zM153.6 524.8h716.8c14.138 0 25.6-11.462 25.6-25.6v-76.8c0-14.138-11.462-25.6-25.6-25.6h-716.8c-14.138 0-25.6 11.462-25.6 25.6v76.8c0 14.138 11.462 25.6 25.6 25.6z" />
<glyph unicode="&#xe914;" glyph-name="pencil" d="M962.304 621.312l-289.792 289.792c-9.267 9.277-22.075 15.016-36.224 15.016s-26.957-5.739-36.224-15.016v0l-520.96-521.216c-9.33-9.276-15.104-22.119-15.104-36.311 0-0.014 0-0.029 0-0.043v0.002-289.536c0-28.277 22.923-51.2 51.2-51.2v0h289.536c0.012 0 0.026 0 0.041 0 14.192 0 27.035 5.774 36.309 15.102l521.218 520.962c9.277 9.267 15.016 22.075 15.016 36.224s-5.739 26.957-15.016 36.224v0zM257.792 363.264l387.072 387.072c4.627 4.601 11.006 7.444 18.048 7.444s13.421-2.844 18.049-7.446l-0.001 0.001c4.677-4.64 7.572-11.070 7.572-18.176s-2.895-13.536-7.571-18.174l-387.074-386.818c-4.723-5.492-11.68-8.948-19.444-8.948-14.138 0-25.6 11.462-25.6 25.6 0 7.764 3.456 14.721 8.915 19.416l0.034 0.028zM206.592 89.6l-65.792 66.048v142.336l208.384-208.384zM801.536 593.664l-387.072-387.072c-4.723-5.492-11.68-8.948-19.444-8.948-14.138 0-25.6 11.462-25.6 25.6 0 7.764 3.456 14.721 8.915 19.416l0.034 0.028 386.816 387.072c4.64 4.677 11.070 7.572 18.176 7.572s13.536-2.895 18.174-7.571l0.002-0.002c4.601-4.627 7.444-11.006 7.444-18.048s-2.844-13.421-7.446-18.049l0.001 0.001z" />
<glyph unicode="&#xe915;" glyph-name="plus" d="M934.4 524.8h-358.4v358.4c0 14.138-11.462 25.6-25.6 25.6v0h-76.8c-14.138 0-25.6-11.462-25.6-25.6v0-358.4h-358.4c-14.138 0-25.6-11.462-25.6-25.6v0-76.8c0-14.138 11.462-25.6 25.6-25.6v0h358.4v-358.4c0-14.138 11.462-25.6 25.6-25.6v0h76.8c14.138 0 25.6 11.462 25.6 25.6v0 358.4h358.4c14.138 0 25.6 11.462 25.6 25.6v0 76.8c0 14.138-11.462 25.6-25.6 25.6v0z" />
<glyph unicode="&#xe916;" glyph-name="share" d="M793.6 204.8h-51.2c-14.138 0-25.6-11.462-25.6-25.6v0-51.2h-537.6v537.6h179.2c14.138 0 25.6 11.462 25.6 25.6v0 51.2c0 14.138-11.462 25.6-25.6 25.6v0h-256c-14.138 0-25.6-11.462-25.6-25.6v0-691.2c0-14.138 11.462-25.6 25.6-25.6v0h691.2c14.138 0 25.6 11.462 25.6 25.6v0 128c0 14.138-11.462 25.6-25.6 25.6v0zM1005.824 606.976l-245.248 245.248c-4.64 4.677-11.070 7.573-18.176 7.573-14.101 0-25.539-11.4-25.6-25.487v-128.006c-50.652-12.775-95.17-31.751-135.775-56.51l2.143 1.214c-54.181-32.973-99.563-74.764-135.536-123.878l-0.912-1.306c-32.932-44.951-57.84-98.037-71.352-155.516l-0.584-2.948c-6.417-27.062-10.096-58.134-10.096-90.065 0-25.626 2.37-50.698 6.901-75.009l-0.389 2.515c1.242-6.021 6.5-10.483 12.8-10.483s11.558 4.462 12.785 10.399l0.015 0.085c17.805 93.709 72.548 172.102 148.183 220.898l1.321 0.798c42.763 27.559 94.992 43.937 151.045 43.937 6.844 0 13.631-0.244 20.353-0.724l-0.903 0.052v-126.464c0.061-14.092 11.499-25.493 25.6-25.493 7.106 0 13.536 2.895 18.175 7.571l245.25 245.25c4.677 4.64 7.572 11.070 7.572 18.176s-2.895 13.536-7.571 18.174l-0.002 0.002z" />
<glyph unicode="&#xe917;" glyph-name="trash" d="M868.096 665.6h-712.192c-0.031 0-0.067 0-0.104 0-14.138 0-25.6-11.462-25.6-25.6 0-0.811 0.038-1.614 0.112-2.406l-0.008 0.101 57.856-642.048c2.314-26.342 24.27-46.848 51.015-46.848 0.065 0 0.13 0 0.195 0h545.526c0.055 0 0.12 0 0.185 0 26.745 0 48.701 20.507 51.001 46.654l0.014 0.194 57.344 642.048c0.066 0.691 0.104 1.493 0.104 2.304 0 14.085-11.375 25.513-25.44 25.6h-0.008zM422.4 166.4c0-14.138-11.462-25.6-25.6-25.6v0h-25.6c-14.138 0-25.6 11.462-25.6 25.6v0 332.8c0 14.138 11.462 25.6 25.6 25.6v0h25.6c14.138 0 25.6-11.462 25.6-25.6v0zM678.4 166.4c0-14.138-11.462-25.6-25.6-25.6v0h-25.6c-14.138 0-25.6 11.462-25.6 25.6v0 332.8c0 14.138 11.462 25.6 25.6 25.6v0h25.6c14.138 0 25.6-11.462 25.6-25.6v0zM908.8 870.4h-204.8v51.2c0 28.277-22.923 51.2-51.2 51.2v0h-281.6c-28.277 0-51.2-22.923-51.2-51.2v0-51.2h-204.8c-28.277 0-51.2-22.923-51.2-51.2v0-51.2c0-28.277 22.923-51.2 51.2-51.2v0h793.6c28.277 0 51.2 22.923 51.2 51.2v0 51.2c0 28.277-22.923 51.2-51.2 51.2v0z" />
<glyph unicode="&#xe918;" glyph-name="app-download" d="M502.528 712.448l-70.656 111.104c-5.822 8.981-15.794 14.841-27.135 14.848h-233.473c-11.342-0.007-21.314-5.867-27.060-14.723l-0.076-0.125-70.656-111.104c-5.822-8.981-15.794-14.841-27.135-14.848h-14.337c-17.673 0-32-14.327-32-32v0-550.4c0-17.673 14.327-32 32-32v0h960c17.673 0 32 14.327 32 32v0 550.4c0 17.673-14.327 32-32 32v0h-462.336c-11.342 0.007-21.314 5.867-27.060 14.723l-0.076 0.125z" />
<glyph unicode="&#xe919;" glyph-name="app-ezlogi" d="M1000.704 421.12h-265.984c-13.101 1.232-23.271 12.175-23.271 25.494 0 1.211 0.084 2.403 0.247 3.569l-0.015-0.135v138.752c-0.147 1.032-0.231 2.223-0.231 3.434 0 13.319 10.171 24.262 23.169 25.486l0.102 0.008h265.984c13.217-1.107 23.524-12.108 23.524-25.516 0-1.203-0.083-2.387-0.244-3.546l0.015 0.134v-138.752c0.145-1.025 0.228-2.209 0.228-3.412 0-13.408-10.308-24.408-23.431-25.509l-0.093-0.006zM798.464 860.672h138.752c15.976 0 28.928-12.952 28.928-28.928v-138.752c0-15.976-12.952-28.928-28.928-28.928h-138.752c-15.976 0-28.928 12.952-28.928 28.928v138.752c0 15.976 12.952 28.928 28.928 28.928zM555.264 860.672h138.752c15.976 0 28.928-12.952 28.928-28.928v-138.752c0-15.976-12.952-28.928-28.928-28.928h-138.752c-15.976 0-28.928 12.952-28.928 28.928v138.752c0 15.976 12.952 28.928 28.928 28.928zM491.776 617.728h138.752c15.976 0 28.928-12.952 28.928-28.928v-138.752c0-15.976-12.952-28.928-28.928-28.928h-138.752c-15.976 0-28.928 12.952-28.928 28.928v138.752c0 15.976 12.952 28.928 28.928 28.928zM994.304 374.784h-549.888c-0.153-0.003-0.333-0.005-0.513-0.005-16.029 0-29.041 12.923-29.183 28.919v358.414c-0.129 16.161-13.26 29.212-29.439 29.212-0.451 0-0.899-0.010-1.344-0.030l0.063 0.002h-243.2c-0.026 0-0.057 0-0.088 0-13.059 0-24.165-8.357-28.264-20.014l-0.064-0.21-111.104-256c-0.178-1.345-0.279-2.901-0.279-4.48s0.101-3.135 0.298-4.66l-0.019 0.18v-299.264c0.287-16.038 13.356-28.929 29.436-28.929 0.092 0 0.183 0 0.274 0.001h115.186c12.149 53.251 59.104 92.389 115.2 92.389s103.050-39.138 115.047-91.596l0.153-0.793h284.416c12.149 53.251 59.104 92.389 115.2 92.389s103.050-39.138 115.047-91.596l0.153-0.793h102.4c0.23-0.006 0.501-0.010 0.772-0.010 16.083 0 29.154 12.896 29.435 28.912v139.034c-0.287 16.038-13.356 28.929-29.436 28.929-0.092 0-0.183 0-0.274-0.001h0.014zM335.616 528.384c-0.648-5.519-5.297-9.76-10.937-9.76-0.295 0-0.588 0.012-0.877 0.034l0.038-0.002h-213.76c-7.936 0-13.568 6.4-11.008 12.8l75.264 189.696c2.060 3.845 6.050 6.416 10.641 6.416 0.219 0 0.437-0.006 0.653-0.017l-0.030 0.001h138.24c0.251 0.020 0.544 0.032 0.839 0.032 5.64 0 10.289-4.241 10.932-9.708l0.005-0.052zM857.6 141.824c0-44.678-36.218-80.896-80.896-80.896s-80.896 36.218-80.896 80.896c0 44.678 36.218 80.896 80.896 80.896s80.896-36.218 80.896-80.896zM342.784 141.824c0-44.678-36.218-80.896-80.896-80.896s-80.896 36.218-80.896 80.896c0 44.678 36.218 80.896 80.896 80.896s80.896-36.218 80.896-80.896z" />
<glyph unicode="&#xe91a;" glyph-name="checlCircle" d="M512 908.8c-247.424 0-448-200.576-448-448s200.576-448 448-448c247.424 0 448 200.576 448 448v0c-0.146 247.365-200.635 447.854-447.986 448h-0.014zM768 583.168l-317.184-316.928c-4.627-4.601-11.006-7.444-18.048-7.444s-13.421 2.844-18.049 7.446l0.001-0.001-158.72 158.464c-4.601 4.627-7.444 11.006-7.444 18.048s2.844 13.421 7.446 18.049l36.095 36.095c4.627 4.601 11.006 7.444 18.048 7.444s13.421-2.844 18.049-7.446l104.191-104.191 263.168 262.656c4.627 4.601 11.006 7.444 18.048 7.444s13.421-2.844 18.049-7.446l36.351-36.095c4.601-4.627 7.444-11.006 7.444-18.048s-2.844-13.421-7.446-18.049l0.001 0.001z" />
<glyph unicode="&#xe91b;" glyph-name="app-giftKit" d="M430.080 807.424l56.32 58.88c6.213 6.508 14.956 10.554 24.644 10.554 14.309 0 26.557-8.827 31.595-21.334l0.081-0.229 79.36-187.904c6.562-14.638 10.385-31.727 10.385-49.709 0-4.493-0.239-8.93-0.704-13.299l0.047 0.543 43.52-41.728c3.826 0.418 8.263 0.657 12.755 0.657 17.981 0 35.070-3.822 50.498-10.699l-0.789 0.314 187.904-79.36c12.735-5.119 21.562-17.367 21.562-31.676 0-9.688-4.046-18.431-10.541-24.631l-0.013-0.013-58.88-59.392 146.176-144.896v649.216c-0.144 25.391-20.689 45.936-46.066 46.080h-649.23zM1021.696 57.6l-224 224-55.296-53.76c-6.524-6.278-15.407-10.146-25.193-10.146-15.152 0-28.139 9.27-33.598 22.448l-0.088 0.241-74.24 197.888c-4.551 11.671-7.339 25.172-7.677 39.28l-0.003 0.144-53.504 53.504c-14.252 0.341-27.753 3.129-40.239 7.957l0.815-0.277-197.888 73.984c-13.419 5.548-22.69 18.535-22.69 33.687 0 9.786 3.867 18.67 10.157 25.205l-0.011-0.012 53.76 55.552-181.504 181.504h-124.416c-25.391-0.144-45.936-20.689-46.080-46.066v-803.854c0.144-25.391 20.689-45.936 46.066-46.080h931.854c25.391 0.144 45.936 20.689 46.080 46.066v0.014z" />
<glyph unicode="&#xe91c;" glyph-name="app-googleAd" d="M1016.32 482.816l-184.32 184.576c-5.114 5.207-12.228 8.433-20.096 8.433s-14.982-3.227-20.092-8.429l-31.236-31.236c-5.157-4.7-8.381-11.446-8.381-18.944s3.224-14.244 8.361-18.926l0.020-0.018 114.176-111.872c5.083-5.17 8.221-12.267 8.221-20.096s-3.138-14.926-8.225-20.1l0.004 0.004-114.432-117.248c-5.157-4.7-8.381-11.446-8.381-18.944s3.224-14.244 8.361-18.926l0.020-0.018 31.232-31.232c5.101-5.129 12.164-8.304 19.968-8.304s14.867 3.175 19.967 8.303l0.001 0.001 184.32 184.576c4.857 4.94 7.855 11.72 7.855 19.2s-2.998 14.26-7.859 19.204l0.004-0.004zM263.68 328.96l-114.944 117.504c-5.083 5.17-8.221 12.267-8.221 20.096s3.138 14.926 8.225 20.1l-0.004-0.004 114.688 111.616c5.157 4.7 8.381 11.446 8.381 18.944s-3.224 14.244-8.361 18.926l-0.020 0.018-31.232 31.232c-5.17 5.083-12.267 8.221-20.096 8.221s-14.926-3.138-20.1-8.225l-184.316-184.316c-4.783-4.888-7.734-11.585-7.734-18.972 0-2.354 0.3-4.639 0.863-6.817l-0.041 0.188c1.028-5.475 3.675-10.21 7.416-13.816l184.328-184.328c5.101-5.129 12.164-8.304 19.968-8.304s14.867 3.175 19.967 8.303l31.233 31.233c5.326 4.714 8.667 11.567 8.667 19.2s-3.341 14.486-8.64 19.177l-0.027 0.023zM380.416 332.8c5.44 6.803 13.74 11.123 23.048 11.123 5.056 0 9.815-1.275 13.972-3.52l-0.156 0.077c22.233-8.064 47.895-12.726 74.646-12.726 3.188 0 6.361 0.066 9.517 0.197l-0.452-0.015c2.595-0.261 5.608-0.41 8.657-0.41 30.15 0 56.899 14.558 73.601 37.029l0.174 0.245c6.144 12.544-15.616 37.376-31.744 27.136-16.733-12.39-37.781-19.833-60.567-19.833-1.748 0-3.485 0.044-5.211 0.13l0.242-0.010c-2.106-0.111-4.572-0.174-7.052-0.174-78.751 0-142.592 63.841-142.592 142.592 0 2.222 0.051 4.433 0.151 6.63l-0.011-0.312c0 92.672 59.392 153.6 149.504 153.6 1.936 0.092 4.205 0.144 6.487 0.144 33.665 0 64.663-11.42 89.33-30.598l-0.329 0.246c0 0 0 0.001 0 0.001 0 12.442 10.086 22.528 22.528 22.528 0.090 0 0.18-0.001 0.27-0.002h43.506c0 0 0.001 0 0.001 0 12.352 0 22.382-9.941 22.526-22.258v-0.014c0-62.208 0-233.216 0-233.216 0-62.72-12.288-110.592-49.152-136.192-30.768-19.47-68.223-31.025-108.376-31.025-3.931 0-7.837 0.111-11.714 0.329l0.538-0.024c-6.432-0.571-13.915-0.897-21.473-0.897-37.825 0-73.745 8.154-106.098 22.801l1.62-0.656c-9.087 6.479-14.941 16.982-14.941 28.852 0 7.494 2.333 14.443 6.313 20.16l-0.076-0.116zM505.6 453.12c0.73-0.031 1.586-0.049 2.447-0.049 33.65 0 60.928 27.278 60.928 60.928 0 2.453-0.145 4.872-0.427 7.249l0.028-0.288c0.113 1.484 0.177 3.215 0.177 4.96 0 35.994-27.311 65.61-62.341 69.255l-0.3 0.025c-1.172 0.069-2.543 0.108-3.923 0.108-39.446 0-71.424-31.978-71.424-71.424 0-1.209 0.030-2.41 0.089-3.604l-0.007 0.168c0-46.848 33.28-66.048 74.752-66.304z" />
<glyph unicode="&#xe91d;" glyph-name="app-googleAdCoupon" d="M512 908.8c-247.424 0-448-200.576-448-448s200.576-448 448-448c247.424 0 448 200.576 448 448v0c-0.146 247.365-200.635 447.854-447.986 448h-0.014zM513.28 123.392c-185.638 0-336.128 150.49-336.128 336.128s150.49 336.128 336.128 336.128c185.638 0 336.128-150.49 336.128-336.128v0c0-185.638-150.49-336.128-336.128-336.128v0zM513.28 683.52c-123.712 0-224-100.288-224-224s100.288-224 224-224c123.712 0 224 100.288 224 224v0c0 123.712-100.288 224-224 224v0zM513.28 347.392c-61.927 0-112.128 50.201-112.128 112.128s50.201 112.128 112.128 112.128c61.927 0 112.128-50.201 112.128-112.128v0c0-61.927-50.201-112.128-112.128-112.128v0z" />
<glyph unicode="&#xe91e;" glyph-name="plusCircle" d="M512 908.8c-247.424 0-448-200.576-448-448s200.576-448 448-448c247.424 0 448 200.576 448 448v0c-0.146 247.365-200.635 447.854-447.986 448h-0.014zM763.136 435.2c0-14.138-11.462-25.6-25.6-25.6v0h-174.336v-174.336c0-14.138-11.462-25.6-25.6-25.6v0h-51.2c-14.138 0-25.6 11.462-25.6 25.6v0 174.336h-174.336c-14.138 0-25.6 11.462-25.6 25.6v0 51.2c0 14.138 11.462 25.6 25.6 25.6v0h174.336v174.336c0 14.138 11.462 25.6 25.6 25.6v0h51.2c14.138 0 25.6-11.462 25.6-25.6v0-174.336h174.336c14.138 0 25.6-11.462 25.6-25.6v0z" />
<glyph unicode="&#xe91f;" glyph-name="app-googleAnalytics" d="M933.888 696.576c-0.31 0.004-0.676 0.006-1.042 0.006-49.485 0-89.6-40.115-89.6-89.6 0-15.98 4.183-30.983 11.515-43.974l-0.232 0.448-130.56-115.712c-13.731 9.129-30.602 14.567-48.742 14.567-24.18 0-46.104-9.661-62.122-25.334l0.016 0.016-150.016 99.072c0.977 4.888 1.536 10.506 1.536 16.256 0 0.045 0 0.090 0 0.135v-0.007c0.489 3.531 0.768 7.611 0.768 11.757 0 49.909-40.459 90.368-90.368 90.368s-90.368-40.459-90.368-90.368c0-4.145 0.279-8.225 0.82-12.223l-0.052 0.466c0-0.058 0-0.127 0-0.196 0-11.172 2.162-21.839 6.091-31.606l-0.202 0.57-151.808-130.048c-13.873 9.111-30.877 14.533-49.147 14.533-49.909 0-90.368-40.459-90.368-90.368s40.459-90.368 90.368-90.368c49.57 0 89.817 39.911 90.362 89.352v0.052c-0.174 10.128-1.941 19.786-5.060 28.813l0.196-0.653 153.6 131.84c13.158-8.21 29.135-13.078 46.25-13.078 20.588 0 39.53 7.044 54.548 18.854l-0.19-0.144 156.928-102.4c-0.059-0.842-0.093-1.825-0.093-2.816s0.034-1.974 0.101-2.948l-0.007 0.132c0-49.909 40.459-90.368 90.368-90.368s90.368 40.459 90.368 90.368v0c-0.059 10.018-1.836 19.602-5.051 28.498l0.187-0.594 138.496 122.88c10.050-4.331 21.747-6.868 34.031-6.912h0.017c49.909 0 90.368 40.459 90.368 90.368s-40.459 90.368-90.368 90.368v0z" />
<glyph unicode="&#xe920;" glyph-name="skip" d="M996.608 481.28l-379.648 284.672c-4.225 3.196-9.568 5.12-15.36 5.12-14.138 0-25.6-11.462-25.6-25.6v-569.344c0-14.138 11.462-25.6 25.6-25.6 5.792 0 11.135 1.924 15.424 5.167l-0.064-0.047 379.648 284.672c6.246 4.72 10.24 12.134 10.24 20.48s-3.994 15.76-10.176 20.433l-0.064 0.047zM40.96 765.952c-4.225 3.196-9.568 5.12-15.36 5.12-14.138 0-25.6-11.462-25.6-25.6v0-569.344c0-14.138 11.462-25.6 25.6-25.6 5.792 0 11.135 1.924 15.424 5.167l-0.064-0.047 379.648 284.672c6.246 4.72 10.24 12.134 10.24 20.48s-3.994 15.76-10.176 20.433l-0.064 0.047z" />
<glyph unicode="&#xe921;" glyph-name="sort" d="M482.048 316.16c-4.627 4.601-11.006 7.444-18.048 7.444s-13.421-2.844-18.049-7.446l-107.263-107.263v648.704c0 14.138-11.462 25.6-25.6 25.6v0h-51.2c-14.138 0-25.6-11.462-25.6-25.6v0-648.704l-108.288 107.264c-4.64 4.677-11.070 7.572-18.176 7.572s-13.536-2.895-18.174-7.571l-0.002-0.002-35.072-36.352c-4.601-4.627-7.444-11.006-7.444-18.048s2.844-13.421 7.446-18.049l212.735-212.735c4.627-4.601 11.006-7.444 18.048-7.444s13.421 2.844 18.049 7.446l212.735 212.735c4.601 4.627 7.444 11.006 7.444 18.048s-2.844 13.421-7.446 18.049l0.001-0.001zM967.424 677.888l-212.736 212.736c-4.627 4.601-11.006 7.444-18.048 7.444s-13.421-2.844-18.049-7.446l-212.735-212.735c-4.601-4.627-7.444-11.006-7.444-18.048s2.844-13.421 7.446-18.049l36.095-36.351c4.627-4.601 11.006-7.444 18.048-7.444s13.421 2.844 18.049 7.446l107.263 107.263v-648.704c0-14.138 11.462-25.6 25.6-25.6v0h51.2c14.138 0 25.6 11.462 25.6 25.6v0 648.704l108.288-107.264c4.64-4.677 11.070-7.572 18.176-7.572s13.536 2.895 18.174 7.571l0.002 0.002 36.096 36.352c4.303 4.569 6.947 10.743 6.947 17.533 0 7.301-3.057 13.889-7.96 18.552l-0.011 0.010z" />
<glyph unicode="&#xe922;" glyph-name="tipi" d="M45.824-51.2h932.352l-447.232 774.912 119.040 204.8-28.416 16.384-93.184-160v187.904h-32.768v-187.904l-93.184 161.024-28.416-16.384 119.040-204.8zM148.224-5.376l102.4 179.2 102.4-179.2zM773.376 173.824l102.4-179.2h-204.8zM512.256 173.824l102.4-179.2h-205.056z" />
<glyph unicode="&#xe923;" glyph-name="arrowDown" d="M877.824 350.976l-54.272 54.272c-4.627 4.601-11.006 7.444-18.048 7.444s-13.421-2.844-18.049-7.446l-211.455-211.455v753.408c0 14.138-11.462 25.6-25.6 25.6v0h-76.8c-14.138 0-25.6-11.462-25.6-25.6v0-753.408l-211.456 211.456c-4.627 4.601-11.006 7.444-18.048 7.444s-13.421-2.844-18.049-7.446l-54.271-54.271c-4.677-4.64-7.572-11.070-7.572-18.176s2.895-13.536 7.571-18.174l347.65-347.65c4.64-4.677 11.070-7.572 18.176-7.572s13.536 2.895 18.174 7.571l347.65 347.65c4.677 4.64 7.572 11.070 7.572 18.176s-2.895 13.536-7.571 18.174l-0.002 0.002z" />
<glyph unicode="&#xe924;" glyph-name="arrowLeft" d="M998.4 524.8h-753.408l211.456 211.456c4.601 4.627 7.444 11.006 7.444 18.048s-2.844 13.421-7.446 18.049l-54.271 54.271c-4.64 4.677-11.070 7.572-18.176 7.572s-13.536-2.895-18.174-7.571l-347.65-347.65c-4.677-4.64-7.572-11.070-7.572-18.176s2.895-13.536 7.571-18.174l347.65-347.65c4.64-4.677 11.070-7.572 18.176-7.572s13.536 2.895 18.174 7.571l54.274 54.274c4.601 4.627 7.444 11.006 7.444 18.048s-2.844 13.421-7.446 18.049l-211.455 211.455h753.408c14.138 0 25.6 11.462 25.6 25.6v0 76.8c0 14.138-11.462 25.6-25.6 25.6v0z" />
<glyph unicode="&#xe925;" glyph-name="arrowRight" d="M1005.824 478.976l-347.648 347.648c-4.64 4.677-11.070 7.572-18.176 7.572s-13.536-2.895-18.174-7.571l-54.274-54.274c-4.601-4.627-7.444-11.006-7.444-18.048s2.844-13.421 7.446-18.049l211.455-211.455h-753.408c-14.138 0-25.6-11.462-25.6-25.6v0-76.8c0-14.138 11.462-25.6 25.6-25.6v0h753.408l-211.456-211.456c-4.601-4.627-7.444-11.006-7.444-18.048s2.844-13.421 7.446-18.049l54.271-54.271c4.64-4.677 11.070-7.572 18.176-7.572s13.536 2.895 18.174 7.571l347.65 347.65c4.677 4.64 7.572 11.070 7.572 18.176s-2.895 13.536-7.571 18.174l-0.002 0.002z" />
<glyph unicode="&#xe926;" glyph-name="arrowUp" d="M877.824 606.976l-347.648 347.648c-4.64 4.677-11.070 7.572-18.176 7.572s-13.536-2.895-18.174-7.571l-347.65-347.65c-4.677-4.64-7.572-11.070-7.572-18.176s2.895-13.536 7.571-18.174l54.274-54.274c4.627-4.601 11.006-7.444 18.048-7.444s13.421 2.844 18.049 7.446l211.455 211.455v-753.408c0-14.138 11.462-25.6 25.6-25.6v0h76.8c14.138 0 25.6 11.462 25.6 25.6v0 753.408l211.456-211.456c4.627-4.601 11.006-7.444 18.048-7.444s13.421 2.844 18.049 7.446l54.271 54.271c4.677 4.64 7.572 11.070 7.572 18.176s-2.895 13.536-7.571 18.174l-0.002 0.002z" />
<glyph unicode="&#xe927;" glyph-name="logout" d="M996.352 480l-219.136 219.136c-4.614 4.527-10.942 7.32-17.923 7.32-14.012 0-25.395-11.257-25.597-25.221v-92.435h-260.096c-14.138 0-25.6-11.462-25.6-25.6v0-204.8c0-14.138 11.462-25.6 25.6-25.6v0h260.096v-90.112c0.060-14.093 11.499-25.494 25.6-25.494 6.979 0 13.306 2.793 17.924 7.322l-0.004-0.004 219.136 219.392c4.601 4.627 7.444 11.006 7.444 18.048s-2.844 13.421-7.446 18.049l0.001-0.001zM787.2 89.6h-550.4v742.4h550.4v-51.2h76.8v98.304c0.090 0.884 0.142 1.909 0.142 2.947 0 5.916-1.672 11.441-4.57 16.129l0.076-0.132c-3.476 5.114-8.636 8.859-14.669 10.456l-0.179 0.040c-6.656 0-13.056 0-19.712 0h-630.528c-1.535 0.163-3.316 0.256-5.118 0.256-5.109 0-10.044-0.748-14.7-2.142l0.362 0.093c-6.028-2.699-10.723-7.476-13.249-13.401l-0.063-0.167c-1.267-4.413-1.995-9.481-1.995-14.72 0-1.667 0.074-3.317 0.218-4.947l-0.015 0.211v-826.112c-0.129-1.419-0.203-3.069-0.203-4.736 0-5.239 0.728-10.307 2.090-15.11l-0.094 0.39c2.589-6.092 7.284-10.869 13.15-13.503l0.162-0.065c4.294-1.3 9.228-2.048 14.338-2.048 1.803 0 3.583 0.093 5.338 0.275l-0.22-0.018h629.504c6.656 0 13.056 0 19.712 0 6.614 1.398 12.165 5.193 15.817 10.413l0.055 0.083c2.822 4.556 4.494 10.081 4.494 15.997 0 1.038-0.051 2.064-0.152 3.075l0.010-0.128v98.56h-76.8z" />
<glyph unicode="&#xe928;" glyph-name="newtab" d="M793.6 332.8h-51.2c-14.138 0-25.6-11.462-25.6-25.6v0-179.2h-537.6v537.6h179.2c14.138 0 25.6 11.462 25.6 25.6v0 51.2c0 14.138-11.462 25.6-25.6 25.6v0h-256c-14.138 0-25.6-11.462-25.6-25.6v0-691.2c0-14.138 11.462-25.6 25.6-25.6v0h691.2c14.138 0 25.6 11.462 25.6 25.6v0 256c0 14.138-11.462 25.6-25.6 25.6v0zM921.6 896h-384c-14.138 0-25.6-11.462-25.6-25.6v0-51.2c0-14.138 11.462-25.6 25.6-25.6v0h234.752l-342.528-342.528c-4.601-4.627-7.444-11.006-7.444-18.048s2.844-13.421 7.446-18.049l36.351-36.351c4.627-4.601 11.006-7.444 18.048-7.444s13.421 2.844 18.049 7.446l342.527 342.527v-234.752c0-14.138 11.462-25.6 25.6-25.6v0h51.2c14.138 0 25.6 11.462 25.6 25.6v0 384c0 14.138-11.462 25.6-25.6 25.6v0z" />
<glyph unicode="&#xe929;" glyph-name="cart" d="M990.208 716.8h-749.312l-43.776 160.256c-3.028 11.007-12.947 18.959-24.724 18.959-0.308 0-0.615-0.005-0.921-0.016l0.044 0.001h-145.92c-14.138 0-25.6-11.462-25.6-25.6v0-51.2c0-14.138 11.462-25.6 25.6-25.6v0h88.064l171.52-628.736c-18.031-17.434-29.226-41.842-29.226-68.864 0-52.878 42.866-95.744 95.744-95.744 50.626 0 92.075 39.293 95.513 89.045l0.017 0.299h257.536c3.586-49.935 44.977-89.088 95.512-89.088 52.878 0 95.744 42.866 95.744 95.744s-42.866 95.744-95.744 95.744c-0.099 0-0.197 0-0.296 0h-415.985l-17.408 64h509.952c0.282-0.011 0.613-0.017 0.946-0.017 11.684 0 21.54 7.828 24.61 18.525l0.044 0.181 113.92 409.6c0.609 2.080 0.959 4.47 0.959 6.941 0 14.138-11.462 25.6-25.6 25.6-0.427 0-0.852-0.010-1.274-0.031l0.059 0.002z" />
<glyph unicode="&#xe92a;" glyph-name="pin" d="M972.8 575.744l-347.648 347.904c-4.627 4.601-11.006 7.444-18.048 7.444s-13.421-2.844-18.049-7.446l-59.903-59.903c-4.601-4.627-7.444-11.006-7.444-18.048s2.844-13.421 7.446-18.049l37.375-37.375-367.104-272.64-53.248 53.248c-4.627 4.601-11.006 7.444-18.048 7.444s-13.421-2.844-18.049-7.446l-58.879-58.879c-4.601-4.627-7.444-11.006-7.444-18.048s2.844-13.421 7.446-18.049l-0.001 0.001 200.448-200.192-158.72-157.184c-9.277-9.267-15.016-22.075-15.016-36.224s5.739-26.957 15.016-36.224v0c9.267-9.277 22.075-15.016 36.224-15.016s26.957 5.739 36.224 15.016v0l158.72 157.44 201.984-203.52c4.674-4.913 11.26-7.968 18.56-7.968s13.886 3.055 18.55 7.957l0.010 0.011 59.648 59.648c4.601 4.627 7.444 11.006 7.444 18.048s-2.844 13.421-7.446 18.049l0.001-0.001-52.992 53.248 271.616 366.336 35.584-35.584c4.627-4.601 11.006-7.444 18.048-7.444s13.421 2.844 18.049 7.446l-0.001-0.001 59.648 59.904c4.601 4.627 7.444 11.006 7.444 18.048s-2.844 13.421-7.446 18.049l0.001-0.001z" />
<glyph unicode="&#xe92b;" glyph-name="app-i18n" d="M711.936 460.8c0.001 0.48 0.002 1.048 0.002 1.617 0 49.055-4.846 96.979-14.087 143.318l0.773-4.646c-2.258 10.691-11.614 18.599-22.818 18.599-0.981 0-1.947-0.061-2.896-0.178l0.113 0.011c-47.56-7.486-102.77-12.028-158.943-12.54l-0.545-0.004h-12.544c-0.685-0.002-1.494-0.003-2.304-0.003-51.384 0-101.898 3.723-151.288 10.915l5.624-0.672c-0.697 0.072-1.506 0.114-2.324 0.114-11.375 0-20.887-7.978-23.246-18.644l-0.029-0.158c-8.143-40.784-12.803-87.672-12.803-135.647 0-0.731 0.001-1.463 0.003-2.193v0.113c-0.002-0.677-0.004-1.477-0.004-2.278 0-43.613 3.913-86.312 11.407-127.764l-0.652 4.346c1.774-9.892 9.526-17.557 19.319-19.181l0.137-0.019c47.347-7.861 101.906-12.353 157.514-12.353 4.024 0 8.043 0.024 12.056 0.070l-0.61-0.006c60.488 0.49 119.353 5.871 176.672 15.767l-6.432-0.919c9.897 1.592 17.608 9.303 19.182 19.068l0.018 0.132c5.599 33.529 8.798 72.162 8.798 111.541 0 4.077-0.034 8.145-0.103 12.206l0.008-0.611zM644.352 168.704c8.924 15.8 17.55 34.457 24.71 53.825l0.89 2.751c0.956 2.449 1.51 5.285 1.51 8.25 0 12.866-10.43 23.296-23.296 23.296-1.347 0-2.667-0.114-3.952-0.334l0.138 0.019c-39.722-5.422-86.049-8.757-133.065-9.212l-0.567-0.004h-12.288c-42.665 0.004-84.759 2.422-126.161 7.124l5.073-0.468c-0.841 0.109-1.814 0.171-2.802 0.171-12.725 0-23.040-10.315-23.040-23.040 0-3.203 0.654-6.254 1.835-9.026l-0.057 0.151c8.31-21.026 16.904-38.634 26.658-55.486l-1.058 1.982c39.168-66.304 87.296-103.936 133.12-103.936s94.976 37.632 132.352 103.936zM884.736 674.56c-29.951-11.604-67.978-23.457-106.883-33.086l-7.037-1.474c-10.2-2.519-17.644-11.59-17.644-22.399 0-1.677 0.179-3.313 0.52-4.888l-0.027 0.152c9.124-44.461 14.347-95.561 14.347-147.88 0-1.471-0.004-2.942-0.012-4.411l0.001 0.227c-0.088-32.753-2.038-64.949-5.751-96.606l0.375 3.934c-0.175-1.066-0.275-2.296-0.275-3.548 0-12.725 10.315-23.040 23.040-23.040 2.381 0 4.678 0.361 6.838 1.032l-0.163-0.044c59.17 16.678 110.669 38.322 158.736 65.349l-3.6-1.861c6.939 3.68 11.763 10.545 12.537 18.592l0.007 0.096c0 11.776 1.536 23.808 1.536 35.84 0 0.217 0.001 0.473 0.001 0.729 0 73.716-17.886 143.255-49.555 204.514l1.171-2.491c-3.897 7.518-11.62 12.567-20.522 12.567-2.737 0-5.363-0.477-7.799-1.353l0.161 0.050zM139.264 674.56c29.951-11.604 67.978-23.457 106.883-33.086l7.037-1.474c10.2-2.519 17.644-11.59 17.644-22.399 0-1.677-0.179-3.313-0.52-4.888l0.027 0.152c-9.124-44.461-14.347-95.561-14.347-147.88 0-1.471 0.004-2.942 0.012-4.411l-0.001 0.227c0.088-32.753 2.038-64.949 5.751-96.606l-0.375 3.934c0.175-1.066 0.275-2.296 0.275-3.548 0-12.725-10.315-23.040-23.040-23.040-2.381 0-4.678 0.361-6.838 1.032l0.163-0.044c-59.17 16.678-110.669 38.322-158.736 65.349l3.6-1.861c-6.939 3.68-11.763 10.545-12.537 18.592l-0.007 0.096c0 11.776-1.536 23.808-1.536 35.84 0 0.217-0.001 0.473-0.001 0.729 0 73.716 17.886 143.255 49.555 204.514l-1.171-2.491c3.897 7.518 11.62 12.567 20.522 12.567 2.737 0 5.363-0.477 7.799-1.353l-0.161 0.050zM754.176 692.736c35.849 8.432 65.193 17.224 93.837 27.485l-6.029-1.885c9.050 3.423 15.368 12.016 15.368 22.084 0 5.851-2.134 11.205-5.666 15.324l0.027-0.032c-75.182 86.44-182.017 143.657-302.265 153.494l-1.607 0.106c75.008-18.432 139.52-94.208 179.2-201.472 3.254-9.201 11.878-15.674 22.014-15.674 1.816 0 3.583 0.208 5.279 0.601l-0.157-0.031zM742.4 260.352c-36.864-131.584-108.544-226.816-194.048-247.552 191.293 15.169 347.843 148.027 398.082 325.536l0.766 3.168c-53.481-26.206-115.898-48.546-181.036-63.819l-6.1-1.205c-8.519-1.657-15.254-7.88-17.624-15.967l-0.040-0.161zM267.008 273.664c-71.941 16.586-135.405 41.431-193.912 74.091l3.704-1.899c49.663-182.619 207.001-317.372 398.033-332.698l1.583-0.102c-84.736 20.736-156.16 114.688-193.28 244.736-2.326 7.728-8.35 13.667-15.964 15.832l-0.164 0.040zM380.672 752.896c-7.831-13.589-15.898-30.003-22.962-46.939l-1.102-2.981c-1.046-2.568-1.653-5.547-1.653-8.668 0-11.875 8.788-21.697 20.216-23.318l0.125-0.015c38.656-5.072 83.36-7.966 128.74-7.966 2.8 0 5.598 0.011 8.393 0.033l-0.429-0.003c48.989 0.685 96.43 4.292 142.992 10.659l-6.032-0.675c11.437 1.743 20.099 11.509 20.099 23.297 0 3.134-0.612 6.125-1.723 8.86l0.057-0.158c-7.82 19.004-15.628 34.743-24.364 49.878l1.068-2.006c-37.12 66.304-84.992 103.936-132.096 103.936s-93.952-37.632-131.328-103.936zM297.472 705.024c39.424 108.544 104.192 185.344 179.2 204.8-122.075-9.688-229.15-66.963-303.916-153.049l-0.468-0.551c-4.524-4.26-7.342-10.289-7.342-16.975 0-10.65 7.146-19.631 16.905-22.409l0.164-0.040c23.259-8.722 52.701-17.521 82.817-24.566l5.247-1.034c1.74-0.466 3.737-0.733 5.797-0.733 9.716 0 18.043 5.948 21.538 14.402l0.057 0.155z" />
<glyph unicode="&#xe92c;" glyph-name="app-interview" d="M1011.2 760.832l-2.304 7.168c-30.819 82.787-109.179 140.691-201.063 140.691-26.043 0-51-4.652-74.085-13.17l1.483 0.479-146.432-52.48c-83.105-30.387-141.351-108.773-141.351-200.762 0-12.823 1.132-25.382 3.301-37.582l-0.19 1.288-5.888-1.792-406.784-147.968c-22.109-8.208-37.577-29.123-37.577-53.651 0-6.83 1.199-13.38 3.399-19.451l-0.126 0.397 2.048-5.888c8.504-22.214 29.648-37.7 54.409-37.7 7.020 0 13.749 1.245 19.978 3.525l-0.404-0.129 204.8 74.496v-283.904h-98.816c-31.812 0-57.6-25.788-57.6-57.6v0-6.4c0-31.812 25.788-57.6 57.6-57.6v0h320c31.812 0 57.6 25.788 57.6 57.6v0 6.4c0 31.812-25.788 57.6-57.6 57.6v0h-99.328v326.4l80.128 29.952c5.377 1.892 10.037 4.405 14.219 7.523l-0.139-0.099c39.598-46.433 98.153-75.687 163.54-75.687 26.095 0 51.102 4.659 74.234 13.191l-1.487-0.48 145.92 51.2c83.297 30.106 141.755 108.499 141.755 200.545 0 26.531-4.857 51.928-13.73 75.35l0.486-1.463z" />
<glyph unicode="&#xe92d;" glyph-name="app-itemCategory" d="M262.4 846.336h729.6c17.673 0 32-14.327 32-32v-89.6c0-17.673-14.327-32-32-32h-729.6c-17.673 0-32 14.327-32 32v89.6c0 17.673 14.327 32 32 32zM262.4 545.536h729.6c17.673 0 32-14.327 32-32v-89.6c0-17.673-14.327-32-32-32h-729.6c-17.673 0-32 14.327-32 32v89.6c0 17.673 14.327 32 32 32zM262.4 225.536h729.6c17.673 0 32-14.327 32-32v-89.6c0-17.673-14.327-32-32-32h-729.6c-17.673 0-32 14.327-32 32v89.6c0 17.673 14.327 32 32 32zM32 849.664h89.6c17.673 0 32-14.327 32-32v-89.6c0-17.673-14.327-32-32-32h-89.6c-17.673 0-32 14.327-32 32v89.6c0 17.673 14.327 32 32 32zM32 542.464h89.6c17.673 0 32-14.327 32-32v-89.6c0-17.673-14.327-32-32-32h-89.6c-17.673 0-32 14.327-32 32v89.6c0 17.673 14.327 32 32 32zM32 228.864h89.6c17.673 0 32-14.327 32-32v-89.6c0-17.673-14.327-32-32-32h-89.6c-17.673 0-32 14.327-32 32v89.6c0 17.673 14.327 32 32 32z" />
<glyph unicode="&#xe92e;" glyph-name="app-itemLabel" d="M128 940.8v-960c0-17.673 14.327-32 32-32 7.24 0 13.919 2.404 19.28 6.458l-0.080-0.058 313.344 272.384c5.3 4.195 12.082 6.73 19.456 6.73s14.156-2.535 19.522-6.78l-0.066 0.050 313.344-272.128c5.281-3.996 11.96-6.4 19.2-6.4 17.673 0 32 14.327 32 32v0 959.744c0 17.673-14.327 32-32 32v0h-704c-17.673 0-32-14.327-32-32v0z" />
<glyph unicode="&#xe92f;" glyph-name="app-itemQuantityLimit" d="M392.448 347.904v-312.064c0-17.152 7.68-25.6 25.6-25.6h188.928c17.408 0 25.6 7.424 25.6 25.6v312.064h104.96c0.027 0 0.058 0 0.089 0 17.108 0 30.976 13.868 30.976 30.976 0 7.748-2.845 14.831-7.546 20.263l0.033-0.039-225.28 235.52c-5.776 5.949-13.849 9.64-22.784 9.64s-17.008-3.692-22.776-9.633l-0.008-0.008-225.28-235.52c-4.669-5.393-7.513-12.476-7.513-20.224 0-17.108 13.868-30.976 30.976-30.976 0.031 0 0.063 0 0.094 0h-0.005zM992 737.536h-960c0 0-0.001 0-0.001 0-17.673 0-32 14.327-32 32 0 0.090 0 0.18 0.001 0.27v-0.014 108.544c0 17.673 14.327 32 32 32v0h960c17.673 0 32-14.327 32-32v0-108.544c0.001-0.076 0.001-0.166 0.001-0.256 0-17.673-14.327-32-32-32 0 0-0.001 0-0.001 0v0z" />
<glyph unicode="&#xe930;" glyph-name="app-logo" d="M992 907.52h-826.112v31.744c0 17.673-14.327 32-32 32v0h-102.4c-17.452-0.288-31.488-14.503-31.488-31.996 0-0.001 0-0.003 0-0.004v0-956.928c0-17.673 14.327-32 32-32v0h102.4c17.673 0 32 14.327 32 32v0 771.84h264.192v-139.776h-146.688c0 0-0.001 0-0.001 0-17.583 0-31.854-14.181-31.999-31.73v-332.814c0-17.673 14.327-32 32-32v0h625.152c17.673 0 32 14.327 32 32v0 332.8c-0.145 17.563-14.416 31.744-31.999 31.744 0 0-0.001 0-0.001 0h-146.688v139.776h230.4c17.34 0.429 31.232 14.588 31.232 31.991 0 0.003 0 0.006 0 0.010v-0.001 89.344c0 17.673-14.327 32-32 32v0zM507.136 614.4v139.776h179.2v-139.776z" />
<glyph unicode="&#xe931;" glyph-name="app-mailmagazine" d="M0 606.208v-514.816c0.424-16.92 14.24-30.474 31.223-30.474 0.273 0 0.546 0.004 0.817 0.010l-0.040-0.001h960c0.231-0.006 0.504-0.010 0.777-0.010 16.982 0 30.799 13.554 31.222 30.434l0.001 0.039v514.816c-0.893 17.098-14.975 30.623-32.215 30.623-7.938 0-15.206-2.867-20.825-7.622l0.047 0.039-438.016-366.848c-5.624-4.779-12.969-7.685-20.992-7.685s-15.368 2.906-21.039 7.724l0.047-0.039-438.016 366.848c-5.572 4.716-12.84 7.583-20.777 7.583-17.24 0-31.321-13.525-32.211-30.544l-0.003-0.079zM35.84 860.672h952.32c0.809 0.072 1.75 0.112 2.7 0.112 17.956 0 32.512-14.556 32.512-32.512 0-9.997-4.512-18.94-11.61-24.904l-0.050-0.041-476.16-382.464c-6.432-5.033-14.637-8.071-23.552-8.071s-17.12 3.038-23.636 8.134l0.084-0.064-476.16 382.464c-7.148 6.005-11.66 14.948-11.66 24.944 0 17.956 14.556 32.512 32.512 32.512 0.95 0 1.891-0.041 2.821-0.121l-0.121 0.008z" />
<glyph unicode="&#xe932;" glyph-name="attentionTriangle" d="M979.712 94.208l-423.424 733.184c-9.029 15.361-25.474 25.509-44.288 25.509s-35.259-10.148-44.157-25.269l-0.131-0.24-423.424-733.184c-4.313-7.344-6.86-16.174-6.86-25.6 0-28.259 22.893-51.17 51.145-51.2h846.851c28.254 0.030 51.148 22.941 51.148 51.2 0 9.426-2.547 18.256-6.99 25.842l0.131-0.242zM452.864 567.040c0.113 8.297 3.090 15.878 7.984 21.82l-0.048-0.060c4.696 5.756 11.771 9.418 19.703 9.472h69.641c10.301-1.618 18.473-9.189 20.954-19.023l0.038-0.177c0.247-1.232 0.389-2.647 0.389-4.096s-0.142-2.864-0.412-4.234l0.023 0.138v-61.952c-2.888-68.797-12.062-133.859-27.002-196.686l1.402 6.99c-2.66-11.519-12.83-19.976-24.975-19.976-0.22 0-0.439 0.003-0.658 0.008l0.032-0.001h-14.336c-0.186-0.005-0.406-0.008-0.625-0.008-12.145 0-22.314 8.457-24.941 19.803l-0.034 0.173c-13.517 55.826-22.69 120.886-25.529 187.585l-0.071 2.111zM512 130.048c-33.084 0-59.904 26.82-59.904 59.904s26.82 59.904 59.904 59.904c33.084 0 59.904-26.82 59.904-59.904v0c0.001-0.153 0.002-0.333 0.002-0.514 0-32.801-26.591-59.392-59.392-59.392-0.181 0-0.361 0.001-0.542 0.002h0.028z" />
<glyph unicode="&#xe933;" glyph-name="attentionCircle" d="M512 908.8c-247.424 0-448-200.576-448-448s200.576-448 448-448c247.424 0 448 200.576 448 448v0c-0.146 247.365-200.635 447.854-447.986 448h-0.014zM444.928 675.328c-0.147 1.153-0.231 2.487-0.231 3.841 0 17.574 14.167 31.84 31.704 31.999h71.183c0.324 0.011 0.705 0.018 1.087 0.018 5.69 0 11.046-1.428 15.73-3.945l-0.178 0.087c4.675-2.586 8.371-6.447 10.685-11.115l0.067-0.149c2.602-5.663 4.119-12.286 4.119-19.263 0-0.518-0.008-1.034-0.025-1.548l0.002 0.075v-66.048c-4.071-79.316-15.23-153.827-32.931-225.766l1.699 8.166c-2.66-11.519-12.83-19.976-24.975-19.976-0.22 0-0.439 0.003-0.658 0.008l0.032-0.001h-22.016c-0.186-0.005-0.406-0.008-0.625-0.008-12.145 0-22.314 8.457-24.941 19.803l-0.034 0.173c-15.775 63.7-26.84 138.216-30.85 214.601l-0.126 2.999zM512 179.2c-37.467 0-67.84 30.373-67.84 67.84s30.373 67.84 67.84 67.84c37.467 0 67.84-30.373 67.84-67.84v0c0.003-0.23 0.004-0.501 0.004-0.772 0-37.043-30.029-67.072-67.072-67.072-0.272 0-0.543 0.002-0.814 0.005h0.041z" />
<glyph unicode="&#xe934;" glyph-name="beginner" d="M844.8 928.256c-10.513-0.085-20.253-3.325-28.339-8.819l0.179 0.115-304.64-202.752-304.384 204.8c-3.903 2.527-8.392 4.696-13.149 6.279l-0.419 0.121c-0.69 0.059-1.493 0.092-2.304 0.092s-1.614-0.033-2.408-0.099l0.104 0.007c-1.534 0.149-3.317 0.233-5.12 0.233s-3.586-0.085-5.345-0.25l0.225 0.017c-3.917-0.030-7.711-0.494-11.355-1.348l0.347 0.068h-2.816c-3.229-1.567-5.998-3.271-8.579-5.214l0.131 0.094h-3.328c-3.203-1.786-5.969-3.736-8.509-5.94l0.061 0.052c-2.936-2.671-5.477-5.701-7.575-9.036l-0.105-0.18s0-2.048-1.536-2.816c-1.394-2.46-2.692-5.335-3.728-8.332l-0.112-0.372c-0.050-0.499-0.079-1.078-0.079-1.664s0.029-1.165 0.084-1.736l-0.006 0.072c-1.894-4.31-3.329-9.314-4.061-14.544l-0.035-0.304v-644.608c0-0.045 0-0.097 0-0.15 0-13.146 4.954-25.135 13.098-34.201l-0.042 0.047c2.855-3.081 6.046-5.784 9.534-8.072l0.194-0.12 332.8-222.976c7.984-5.393 17.824-8.609 28.416-8.609s20.432 3.216 28.598 8.725l-0.182-0.116 332.8 222.976c13.792 9.297 22.75 24.847 22.784 42.491v644.613c0 0.076 0.001 0.166 0.001 0.256 0 28.277-22.923 51.2-51.2 51.2 0 0 0 0-0.001 0v0zM793.6 259.584l-281.6-188.672v521.472l57.088 38.144 224.512 150.528z" />
<glyph unicode="&#xe935;" glyph-name="calendar" d="M908.8 780.8h-89.6v-60.672s0-3.328 0-3.328c-0.843-42.072-34.728-75.957-76.72-76.799l-0.080-0.001h-51.2c-42.072 0.843-75.957 34.728-76.799 76.72l-0.001 0.080s0 2.56 0 3.584v60.416h-204.8v-60.672s0-3.328 0-3.328c-0.843-42.072-34.728-75.957-76.72-76.799l-0.080-0.001h-51.2c-42.072 0.843-75.957 34.728-76.799 76.72l-0.001 0.080s0 2.56 0 3.584v60.416h-89.6c-28.277 0-51.2-22.923-51.2-51.2v0-665.6c0-28.277 22.923-51.2 51.2-51.2v0h793.6c28.277 0 51.2 22.923 51.2 51.2v0 665.6c0 28.277-22.923 51.2-51.2 51.2v0zM857.6 115.2h-691.2v448h691.2zM281.6 492.544h76.8c14.138 0 25.6-11.462 25.6-25.6v-76.8c0-14.138-11.462-25.6-25.6-25.6h-76.8c-14.138 0-25.6 11.462-25.6 25.6v76.8c0 14.138 11.462 25.6 25.6 25.6zM281.6 301.056h76.8c14.138 0 25.6-11.462 25.6-25.6v-76.8c0-14.138-11.462-25.6-25.6-25.6h-76.8c-14.138 0-25.6 11.462-25.6 25.6v76.8c0 14.138 11.462 25.6 25.6 25.6zM473.6 492.544h76.8c14.138 0 25.6-11.462 25.6-25.6v-76.8c0-14.138-11.462-25.6-25.6-25.6h-76.8c-14.138 0-25.6 11.462-25.6 25.6v76.8c0 14.138 11.462 25.6 25.6 25.6zM473.6 301.056h76.8c14.138 0 25.6-11.462 25.6-25.6v-76.8c0-14.138-11.462-25.6-25.6-25.6h-76.8c-14.138 0-25.6 11.462-25.6 25.6v76.8c0 14.138 11.462 25.6 25.6 25.6zM665.6 492.544h76.8c14.138 0 25.6-11.462 25.6-25.6v-76.8c0-14.138-11.462-25.6-25.6-25.6h-76.8c-14.138 0-25.6 11.462-25.6 25.6v76.8c0 14.138 11.462 25.6 25.6 25.6zM665.6 301.056h76.8c14.138 0 25.6-11.462 25.6-25.6v-76.8c0-14.138-11.462-25.6-25.6-25.6h-76.8c-14.138 0-25.6 11.462-25.6 25.6v76.8c0 14.138 11.462 25.6 25.6 25.6zM691.2 691.2h51.2c14.378 1.082 25.633 13.014 25.633 27.574 0 0.476-0.012 0.949-0.036 1.419l0.003-0.066v159.744c0.021 0.404 0.033 0.877 0.033 1.354 0 14.561-11.256 26.492-25.541 27.569l-0.093 0.006h-51.2c-14.378-1.082-25.633-13.014-25.633-27.574 0-0.476 0.012-0.949 0.036-1.419l-0.003 0.066v-159.744c-0.021-0.404-0.033-0.877-0.033-1.354 0-14.561 11.256-26.492 25.541-27.569l0.093-0.006zM281.6 691.2h51.2c14.378 1.082 25.633 13.014 25.633 27.574 0 0.476-0.012 0.949-0.036 1.419l0.003-0.066v159.744c0.021 0.404 0.033 0.877 0.033 1.354 0 14.561-11.256 26.492-25.541 27.569l-0.093 0.006h-51.2c-14.378-1.082-25.633-13.014-25.633-27.574 0-0.476 0.012-0.949 0.036-1.419l-0.003 0.066v-159.744c-0.021-0.404-0.033-0.877-0.033-1.354 0-14.561 11.256-26.492 25.541-27.569l0.093-0.006z" />
<glyph unicode="&#xe936;" glyph-name="card" d="M185.6 460.8h140.8c14.138 0 25.6-11.462 25.6-25.6v-140.8c0-14.138-11.462-25.6-25.6-25.6h-140.8c-14.138 0-25.6 11.462-25.6 25.6v140.8c0 14.138 11.462 25.6 25.6 25.6zM454.4 460.8h384c14.138 0 25.6-11.462 25.6-25.6v-25.6c0-14.138-11.462-25.6-25.6-25.6h-384c-14.138 0-25.6 11.462-25.6 25.6v25.6c0 14.138 11.462 25.6 25.6 25.6zM454.4 345.6h204.8c14.138 0 25.6-11.462 25.6-25.6v-25.6c0-14.138-11.462-25.6-25.6-25.6h-204.8c-14.138 0-25.6 11.462-25.6 25.6v25.6c0 14.138 11.462 25.6 25.6 25.6zM1024 640v0 76.8c0 70.692-57.308 128-128 128v0h-768c-70.692 0-128-57.308-128-128v0-512c0-70.692 57.308-128 128-128v0h768c70.692 0 128 57.308 128 128v0 332.8zM76.8 716.8c0 28.277 22.923 51.2 51.2 51.2v0h768c28.277 0 51.2-22.923 51.2-51.2v0-76.8h-870.4zM947.2 204.8c0-28.277-22.923-51.2-51.2-51.2v0h-768c-28.277 0-51.2 22.923-51.2 51.2v0 332.8h870.4z" />
<glyph unicode="&#xe937;" glyph-name="bell" d="M512-51.2c87.759 0.010 161.744 58.976 184.505 139.449l0.327 1.351h-369.664c23.088-81.824 97.072-140.79 184.831-140.8h0.001zM864 328.192v209.408c0 0.089 0 0.195 0 0.301 0 140.6-94.455 259.139-223.372 295.623l-2.165 0.524c-9.91 61.679-62.751 108.23-126.464 108.23s-116.554-46.551-126.367-107.497l-0.097-0.733c-131.081-37.008-225.536-155.547-225.536-296.147 0-0.106 0-0.212 0-0.318v0.016-209.92c-55.306-14.627-95.498-63.991-96-122.823v-38.457c0-14.138 11.462-25.6 25.6-25.6v0h844.8c14.138 0 25.6 11.462 25.6 25.6v0 38.4c-0.259 59.099-40.529 108.72-95.107 123.191l-0.893 0.201z" />
<glyph unicode="&#xe938;" glyph-name="coins" d="M627.2 261.376v-140.288c22.813-3.747 49.105-5.889 75.897-5.889 0.318 0 0.635 0 0.953 0.001h-0.049c141.312 0 256 57.344 256 128v0 89.6c-54.016-47.616-146.688-76.8-256-76.8-27.131 0.048-53.763 2-79.821 5.731l3.021-0.355zM627.2 453.376v-140.288c22.813-3.747 49.105-5.889 75.897-5.889 0.318 0 0.635 0 0.953 0.001h-0.049c141.312 0 256 57.344 256 128v90.368c-54.016-47.616-146.688-76.8-256-76.8-1.379-0.012-3.009-0.019-4.64-0.019-25.441 0-50.489 1.681-75.039 4.939l2.879-0.312zM448 716.8v-66.56c25.574-6.428 47.65-14.314 68.705-24.034l-2.401 0.994c61.952-28.672 102.4-71.68 111.36-121.856 23.529-3.882 50.661-6.116 78.309-6.144h0.027c141.312 0 256 57.344 256 128v89.6c-54.016-47.616-146.688-76.8-256-76.8s-201.984 29.952-256 76.8zM960 819.2c0-70.692-114.615-128-256-128s-256 57.308-256 128c0 70.692 114.615 128 256 128s256-57.308 256-128zM64 192.768v-90.368c0-70.656 114.688-128 256-128s256 57.344 256 128v0 90.368c-54.016-47.616-146.688-76.8-256-76.8s-201.984 29.184-256 76.8zM64 384v-89.6c0-70.656 114.688-128 256-128s256 57.344 256 128v0 89.6c-54.016-47.616-146.688-76.8-256-76.8s-201.984 29.952-256 76.8zM576 486.4c0-70.692-114.615-128-256-128s-256 57.308-256 128c0 70.692 114.615 128 256 128s256-57.308 256-128z" />
<glyph unicode="&#xe939;" glyph-name="crossCircle" d="M512 908.8c-247.424 0-448-200.576-448-448s200.576-448 448-448c247.424 0 448 200.576 448 448v0c-0.146 247.365-200.635 447.854-447.986 448h-0.014zM707.584 337.664c4.677-4.64 7.572-11.070 7.572-18.176s-2.895-13.536-7.571-18.174l-36.098-36.098c-4.64-4.677-11.070-7.572-18.176-7.572s-13.536 2.895-18.174 7.571l-123.138 123.138-123.136-123.136c-4.64-4.677-11.070-7.572-18.176-7.572s-13.536 2.895-18.174 7.571l-36.098 36.098c-4.677 4.64-7.572 11.070-7.572 18.176s2.895 13.536 7.571 18.174l123.138 123.138-123.136 123.136c-4.677 4.64-7.572 11.070-7.572 18.176s2.895 13.536 7.571 18.174l36.098 36.098c4.64 4.677 11.070 7.572 18.176 7.572s13.536-2.895 18.174-7.571l123.138-123.138 123.136 123.136c4.64 4.677 11.070 7.572 18.176 7.572s13.536-2.895 18.174-7.571l36.098-36.098c4.677-4.64 7.572-11.070 7.572-18.176s-2.895-13.536-7.571-18.174l-123.138-123.138z" />
<glyph unicode="&#xe93a;" glyph-name="edit" d="M281.6 755.2h460.8c14.138 0 25.6-11.462 25.6-25.6v-25.6c0-14.138-11.462-25.6-25.6-25.6h-460.8c-14.138 0-25.6 11.462-25.6 25.6v25.6c0 14.138 11.462 25.6 25.6 25.6zM281.6 584.448h332.8c14.138 0 25.6-11.462 25.6-25.6v-25.6c0-14.138-11.462-25.6-25.6-25.6h-332.8c-14.138 0-25.6 11.462-25.6 25.6v25.6c0 14.138 11.462 25.6 25.6 25.6zM281.6 413.952h204.8c14.138 0 25.6-11.462 25.6-25.6v-25.6c0-14.138-11.462-25.6-25.6-25.6h-204.8c-14.138 0-25.6 11.462-25.6 25.6v25.6c0 14.138 11.462 25.6 25.6 25.6zM1007.872 536.32l-47.872 47.872v311.808c0 42.415-34.385 76.8-76.8 76.8v0h-742.4c-42.415 0-76.8-34.385-76.8-76.8v0-870.4c0-42.415 34.385-76.8 76.8-76.8v0h742.4c42.415 0 76.8 34.385 76.8 76.8v0 426.496l47.872 47.872c4.677 4.64 7.572 11.070 7.572 18.176s-2.895 13.536-7.571 18.174l-0.002 0.002zM883.2 25.6h-742.4v870.4h742.4v-235.008c-4.64 4.677-11.070 7.572-18.176 7.572s-13.536-2.895-18.174-7.571l-0.002-0.002-177.152-174.592-142.592-142.592c-9.33-9.276-15.105-22.12-15.105-36.312 0-0.104 0-0.208 0.001-0.312v0.016-64h-230.4c-14.138 0-25.6-11.462-25.6-25.6v0-25.6c0-14.138 11.462-25.6 25.6-25.6v0h371.456c0.012 0 0.026 0 0.041 0 14.192 0 27.035 5.774 36.309 15.102l193.794 193.794zM563.2 277.504l59.904-59.904h-59.904z" />
<glyph unicode="&#xe93b;" glyph-name="file" d="M937.472 739.328l-210.944 210.944c-13.886 13.903-33.072 22.509-54.268 22.528h-531.46c-42.415 0-76.8-34.385-76.8-76.8v0-870.4c0-42.415 34.385-76.8 76.8-76.8v0h742.4c42.415 0 76.8 34.385 76.8 76.8v0 659.456c-0.019 21.2-8.625 40.386-22.527 54.271l-0.001 0.001zM704 864.256l147.456-147.456h-147.456zM140.8 25.6v870.4h486.4v-179.2c0-42.415 34.385-76.8 76.8-76.8v0h179.2v-614.4z" />
<glyph unicode="&#xe93c;" glyph-name="heart" d="M512 70.144c-0.015 0-0.032 0-0.050 0-6.228 0-11.937 2.224-16.375 5.921l0.041-0.033c-339.712 282.368-431.616 381.184-431.616 542.464-0.004 0.537-0.007 1.171-0.007 1.806 0 131.015 105.486 237.392 236.159 238.833l0.136 0.001c102.4 0 164.096-55.808 211.712-110.336 47.616 54.528 109.824 110.336 211.712 110.336 130.809-1.443 236.295-107.82 236.295-238.834 0-0.635-0.002-1.269-0.007-1.903l0.001 0.097c0-161.536-91.904-260.096-431.616-541.696-4.326-3.95-10.045-6.439-16.341-6.655l-0.043-0.001z" />
<glyph unicode="&#xe93d;" glyph-name="informationCircle" d="M512 908.8c-247.424 0-448-200.576-448-448s200.576-448 448-448c247.424 0 448 200.576 448 448v0c-0.146 247.365-200.635 447.854-447.986 448h-0.014zM574.208 214.528c0-14.138-11.462-25.6-25.6-25.6v0h-73.216c-14.138 0-25.6 11.462-25.6 25.6v0 305.664c0 14.138 11.462 25.6 25.6 25.6v0h73.216c14.138 0 25.6-11.462 25.6-25.6v0zM512 588.8c-1.219-0.082-2.643-0.128-4.078-0.128-35.912 0-65.024 29.112-65.024 65.024s29.112 65.024 65.024 65.024c1.435 0 2.859-0.046 4.27-0.138l-0.192 0.010c1.219 0.082 2.643 0.128 4.078 0.128 35.912 0 65.024-29.112 65.024-65.024s-29.112-65.024-65.024-65.024c-1.435 0-2.859 0.046-4.27 0.138l0.192-0.010z" />
<glyph unicode="&#xe93e;" glyph-name="linkAdd" d="M143.36 347.648c40.571-40.517 96.591-65.574 158.464-65.574s117.892 25.057 158.466 65.577l-0.002-0.002 36.096 36.352 23.296 23.552c0.119 1.228 0.188 2.654 0.188 4.096s-0.068 2.868-0.201 4.276l0.014-0.18c0 0.039 0 0.084 0 0.13 0 19.465-7.928 37.078-20.732 49.786l-0.004 0.004c-11.689 11.937-27.635 19.666-45.377 20.727l-0.191 0.009-65.536-65.536c-22.013-22.013-52.425-35.629-86.016-35.629-67.183 0-121.645 54.462-121.645 121.645 0 33.591 13.616 64.003 35.629 86.016v0l226.048 226.304c22.089 22.057 52.588 35.698 86.272 35.698 67.433 0 122.098-54.665 122.098-122.098 0-33.748-13.692-64.298-35.824-86.399l-5.889-5.889c13.691-9.356 25.662-19.377 36.583-30.438l0.025-0.026c12.857-12.718 24.407-26.708 34.461-41.779l0.611-0.973 6.656 6.656c40.441 40.558 65.446 96.527 65.446 158.336s-25.005 117.777-65.452 158.341l0.005-0.005c-40.543 40.579-96.572 65.68-158.464 65.68s-117.921-25.101-158.462-65.679l-76.802-76.802-149.76-149.504c-40.441-40.558-65.446-96.527-65.446-158.336s25.005-117.777 65.452-158.341l-0.005 0.005zM608.768 573.952v0c-40.558 40.441-96.527 65.446-158.336 65.446s-117.777-25.005-158.341-65.452l0.005 0.005-36.096-36.352-23.552-23.552c0-2.816 0-5.376 0-8.192 0-0.039 0-0.084 0-0.13 0-19.465 7.928-37.078 20.732-49.786l0.004-0.004c11.967-12.009 28.336-19.625 46.481-20.221l0.111-0.003 65.536 65.536c22.026 22.090 52.489 35.757 86.144 35.757 67.183 0 121.645-54.462 121.645-121.645 0-33.528-13.564-63.887-35.504-85.891l0.003 0.003-150.784-150.272-76.8-76.8c-22.013-22.013-52.425-35.629-86.016-35.629-67.183 0-121.645 54.462-121.645 121.645 0 33.591 13.616 64.003 35.629 86.016v0l5.888 7.168c-13.691 9.356-25.662 19.377-36.583 30.438l-0.025 0.026c-12.799 12.745-24.344 26.729-34.447 41.764l-0.625 0.988-6.656-6.656c-40.441-40.558-65.446-96.527-65.446-158.336s25.005-117.777 65.452-158.341l-0.005 0.005c40.543-40.579 96.572-65.68 158.464-65.68s117.921 25.101 158.462 65.679l113.154 113.154 113.152 111.36c40.824 40.622 66.087 96.849 66.087 158.976s-25.264 118.354-66.078 158.967l-0.009 0.009zM998.4 192h-115.2v115.2c0 14.138-11.462 25.6-25.6 25.6v0h-51.2c-14.138 0-25.6-11.462-25.6-25.6v0-115.2h-115.2c-14.138 0-25.6-11.462-25.6-25.6v0-51.2c0-14.138 11.462-25.6 25.6-25.6v0h115.2v-115.2c0-14.138 11.462-25.6 25.6-25.6v0h51.2c14.138 0 25.6 11.462 25.6 25.6v0 115.2h115.2c14.138 0 25.6 11.462 25.6 25.6v0 51.2c0 14.138-11.462 25.6-25.6 25.6v0z" />
<glyph unicode="&#xe93f;" glyph-name="link" d="M822.528 890.624v0c-40.543 40.579-96.572 65.68-158.464 65.68s-117.921-25.101-158.462-65.679l-226.306-226.306c-40.441-40.558-65.446-96.527-65.446-158.336s25.005-117.777 65.452-158.341l-0.005 0.005c40.571-40.517 96.591-65.574 158.464-65.574s117.892 25.057 158.466 65.577l-0.002-0.002 36.096 36.352 23.552 23.552c0.317 2.516 0.499 5.426 0.499 8.38 0 19.398-7.817 36.969-20.472 49.738l0.005-0.005c-12.049 12.268-28.605 20.074-46.983 20.733l-0.121 0.003-65.536-65.536c-22.013-22.013-52.425-35.629-86.016-35.629-67.183 0-121.645 54.462-121.645 121.645 0 33.591 13.616 64.003 35.629 86.016v0l150.016 149.504 76.8 76.8c22.013 22.013 52.425 35.629 86.016 35.629 67.183 0 121.645-54.462 121.645-121.645 0-33.591-13.616-64.003-35.629-86.016v0l-5.888-5.888c13.691-9.356 25.662-19.377 36.583-30.438l0.025-0.026c12.799-12.745 24.344-26.729 34.447-41.764l0.625-0.988 6.656 6.656c40.213 40.519 65.065 96.334 65.065 157.952s-24.852 117.433-65.078 157.966l0.014-0.014zM744.704 573.952c-40.558 40.441-96.527 65.446-158.336 65.446s-117.777-25.005-158.341-65.452l-59.899-59.899c-0.317-2.516-0.499-5.426-0.499-8.38 0-19.398 7.817-36.969 20.472-49.738l-0.005 0.005c12.049-12.268 28.605-20.074 46.983-20.733l0.121-0.003 65.536 65.536c22.013 22.013 52.425 35.629 86.016 35.629 67.183 0 121.645-54.462 121.645-121.645 0-33.591-13.616-64.003-35.629-86.016v0l-150.016-149.504-76.8-76.8c-22.013-22.013-52.425-35.629-86.016-35.629-67.183 0-121.645 54.462-121.645 121.645 0 33.591 13.616 64.003 35.629 86.016v0l5.888 5.888c-13.67 9.567-25.644 19.835-36.533 31.154l-0.075 0.078c-12.799 12.745-24.344 26.729-34.447 41.764l-0.625 0.988-6.656-6.656c-40.441-40.558-65.446-96.527-65.446-158.336s25.005-117.777 65.452-158.341l-0.005 0.005c40.543-40.579 96.572-65.68 158.464-65.68s117.921 25.101 158.462 65.679l113.154 113.154 113.152 111.872c40.441 40.558 65.446 96.527 65.446 158.336s-25.005 117.777-65.452 158.341l0.005-0.005z" />
<glyph unicode="&#xe940;" glyph-name="movie" d="M998.4 844.8h-972.8c-14.138 0-25.6-11.462-25.6-25.6v0 0-716.8c0-14.138 11.462-25.6 25.6-25.6v0h972.8c14.138 0 25.6 11.462 25.6 25.6v0 0 716.8c0 14.138-11.462 25.6-25.6 25.6v0zM755.2 768v-51.2h-96v64h96zM268.8 153.6v51.2h96v-64h-96zM463.872 153.6v51.2h96.256v-64h-96.256zM659.2 153.6v51.2h96v-64h-96zM854.528 153.6v51.2h95.744v-64h-95.744zM947.2 268.8h-870.4v384h870.4zM560.128 768v-51.2h-96.256v64h96.256zM364.8 768v-51.2h-96v64h96zM169.472 768v-51.2h-95.744v64h95.744zM76.8 204.8h92.672v-64h-95.744v64zM950.272 716.8h-95.744v64h95.744zM431.104 355.072c3.672-2.156 8.087-3.43 12.8-3.43s9.128 1.274 12.921 3.495l-0.121-0.065 144.896 83.456c7.806 4.485 12.978 12.774 12.978 22.272s-5.172 17.787-12.854 22.206l-0.124 0.066-144.896 83.456c-3.672 2.156-8.087 3.43-12.8 3.43s-9.128-1.274-12.921-3.495l0.121 0.065c-7.663-4.483-12.742-12.65-12.8-22.008v-167.432c0.058-9.366 5.137-17.533 12.679-21.951l0.121-0.065z" />
<glyph unicode="&#xe941;" glyph-name="questionCircle" d="M512 908.8c-247.424 0-448-200.576-448-448s200.576-448 448-448c247.424 0 448 200.576 448 448v0c-0.146 247.365-200.635 447.854-447.986 448h-0.014zM512 179.2c-31.811 0-57.599 25.789-57.599 57.6s25.788 57.6 57.6 57.6c31.812 0 57.6-25.788 57.6-57.6 0-0.090 0-0.18-0.001-0.27v0.014c0.003-0.231 0.005-0.504 0.005-0.777 0-31.246-25.33-56.576-56.576-56.576-0.362 0-0.723 0.003-1.083 0.010l0.054-0.001zM600.832 450.816l-12.288-7.168c-14.282-7.947-23.784-22.952-23.784-40.176 0-2.354 0.178-4.667 0.52-6.926l-0.032 0.254v-19.712c0-14.138-11.462-25.6-25.6-25.6v0h-53.248c-14.138 0-25.6 11.462-25.6 25.6v0 29.44c0 45.824 10.752 76.8 67.84 107.776l17.408 9.728c20.679 9.205 34.836 29.573 34.836 53.247 0 0.54-0.007 1.079-0.022 1.616l0.002-0.079c0 0.084 0.001 0.184 0.001 0.283 0 28.277-22.923 51.2-51.2 51.2-1.894 0-3.764-0.103-5.605-0.303l0.228 0.020c-1.576 0.186-3.402 0.292-5.253 0.292-22.078 0-40.627-15.107-45.875-35.548l-0.071-0.328c-2.257-12.021-12.672-20.995-25.182-20.995-0.147 0-0.293 0.001-0.44 0.004h-56.554c-7.508 0.018-14.253 3.266-18.924 8.426l-0.020 0.022c-4.070 4.514-6.56 10.523-6.56 17.112 0 1.006 0.058 1.999 0.171 2.975l-0.011-0.119c7.936 70.912 71.168 118.784 157.44 118.784 95.744 0 162.816-58.112 162.816-141.056 0-56.064-26.112-95.232-84.48-127.744z" />
<glyph unicode="&#xe942;" glyph-name="star" d="M793.6-4.864c-0.177-0.005-0.385-0.008-0.594-0.008-4.096 0-7.949 1.046-11.304 2.885l0.122-0.062-269.824 142.336-270.592-142.336c-3.233-1.778-7.085-2.824-11.182-2.824-0.209 0-0.417 0.003-0.625 0.008l0.031-0.001c-0.027 0-0.059 0-0.091 0-5.64 0-10.855 1.824-15.085 4.915l0.072-0.050c-6.248 4.72-10.245 12.135-10.245 20.483 0 1.811 0.188 3.578 0.546 5.283l-0.029-0.167 51.2 301.056-218.88 212.992c-4.703 4.644-7.616 11.092-7.616 18.219 0 12.761 9.336 23.341 21.551 25.282l0.146 0.019 302.592 44.032 135.168 273.92c4.243 8.617 12.961 14.441 23.040 14.441s18.797-5.824 22.973-14.291l0.067-0.15 135.168-273.92 302.592-44.032c12.466-1.862 21.919-12.494 21.919-25.334 0-7.111-2.899-13.545-7.581-18.184l-0.002-0.002-219.136-213.504 51.2-300.544c0.287-1.44 0.452-3.095 0.452-4.789 0-8.543-4.185-16.109-10.617-20.76l-0.075-0.052c-4.159-3.041-9.374-4.866-15.016-4.866-0.121 0-0.242 0.001-0.362 0.003h0.018z" />
<glyph unicode="&#xe943;" glyph-name="truck" d="M998.4 396.8h-588.8c-14.138 0-25.6 11.462-25.6 25.6v0 371.2c0 28.277-22.923 51.2-51.2 51.2v0h-170.24c-21.372-0.089-39.646-13.259-47.237-31.913l-0.123-0.343-113.408-283.136c-1.134-2.788-1.792-6.022-1.792-9.41 0-0.022 0-0.044 0-0.066v0.003-289.536c0-14.138 11.462-25.6 25.6-25.6v0h86.784c15.276 66.26 73.764 114.916 143.616 114.916s128.34-48.655 143.423-113.924l0.193-0.992h224.768c15.276 66.26 73.764 114.916 143.616 114.916s128.34-48.655 143.423-113.924l0.193-0.992h86.784c14.138 0 25.6 11.462 25.6 25.6v0 140.8c0 14.138-11.462 25.6-25.6 25.6v0zM294.4 576c0-14.138-11.462-25.6-25.6-25.6v0h-124.416c-14.084 0.072-25.472 11.506-25.472 25.6 0 3.509 0.706 6.852 1.983 9.897l-0.063-0.169 61.44 153.6c3.87 9.53 13.056 16.128 23.783 16.128 0.009 0 0.017 0 0.026 0h62.719c14.138 0 25.6-11.462 25.6-25.6v0zM473.6 844.288h524.8c14.138 0 25.6-11.462 25.6-25.6v-332.288c0-14.138-11.462-25.6-25.6-25.6h-524.8c-14.138 0-25.6 11.462-25.6 25.6v332.288c0 14.138 11.462 25.6 25.6 25.6zM352 172.8c0-53.019-42.981-96-96-96s-96 42.981-96 96c0 53.019 42.981 96 96 96s96-42.981 96-96zM864 172.8c0-53.019-42.981-96-96-96s-96 42.981-96 96c0 53.019 42.981 96 96 96s96-42.981 96-96z" />
<glyph unicode="&#xe944;" glyph-name="yenCircle" d="M512 908.8c-247.424 0-448-200.576-448-448s200.576-448 448-448c247.424 0 448 200.576 448 448v0c-0.146 247.365-200.635 447.854-447.986 448h-0.014zM754.176 652.8l-132.096-186.88c-6.889-9.514-13.774-17.861-21.137-25.757l0.145 0.157 83.712-1.792c7.069 0 12.8-5.731 12.8-12.8v0-31.488c-0.141-7.012-5.788-12.659-12.787-12.8h-121.613v-45.056h120.832c7.069 0 12.8-5.731 12.8-12.8v0-29.952c0-7.069-5.731-12.8-12.8-12.8v0h-120.832v-87.296c0-7.069-5.731-12.8-12.8-12.8v0h-79.872c-7.1 0.144-12.8 5.933-12.8 13.053 0 0.001 0 0.002 0 0.003v0l1.536 87.040h-120.832c-7.069 0-12.8 5.731-12.8 12.8v0 29.952c0 7.069 5.731 12.8 12.8 12.8v0h120.832v45.056h-120.832c-7.069 0-12.8 5.731-12.8 12.8v0 30.208c0 7.069 5.731 12.8 12.8 12.8v0h83.968c-5.632 8.192-15.36 19.968-20.48 27.904l-131.584 186.88c-1.146 1.903-1.824 4.2-1.824 6.656s0.678 4.753 1.857 6.715l-0.033-0.059c2.177 4.139 6.447 6.913 11.366 6.913 0.054 0 0.108 0 0.162-0.001h84.216c0.677 0.064 1.464 0.1 2.259 0.1 3.235 0 6.33-0.6 9.18-1.695l-0.175 0.059c3.41-2.014 6.178-4.782 8.134-8.086l0.058-0.106 95.232-133.632c9.91-14.4 19.94-31.151 28.944-48.519l1.264-2.681h3.328c10.538 20.256 20.562 37 31.432 53.128l-1.224-1.928 94.976 133.632c1.954 2.922 4.335 5.384 7.084 7.366l0.084 0.058c3.153 1.494 6.85 2.367 10.751 2.367 0.631 0 1.257-0.023 1.876-0.068l-0.083 0.005h85.76c6.989-0.105 12.614-5.795 12.614-12.799 0-2.785-0.89-5.362-2.4-7.464l0.026 0.038z" />
<glyph unicode="&#xe945;" glyph-name="book" d="M1012.992 786.176c-25.6 17.408-100.608 56.32-244.992 56.32-139.52 0-213.76-36.352-242.176-54.528-3.908-2.542-8.69-4.053-13.824-4.053s-9.916 1.512-13.923 4.114l0.099-0.061c-28.416 18.176-102.4 54.528-242.176 54.528-144.384 0-218.88-38.912-244.992-56.32-6.677-4.676-10.993-12.329-11.008-20.99v-646.914c0-14.138 11.462-25.6 25.6-25.6v0c0.106-0.002 0.231-0.002 0.356-0.002 4.062 0 7.902 0.946 11.314 2.629l-0.15-0.067c59.241 27.041 128.495 42.803 201.43 42.803 6.136 0 12.247-0.112 18.329-0.333l-0.879 0.025c139.52 0 213.76-36.352 242.176-54.528 3.908-2.542 8.69-4.053 13.824-4.053s9.916 1.512 13.923 4.114l-0.099-0.061c28.416 18.176 102.4 54.528 242.176 54.528 5.663 0.232 12.31 0.364 18.988 0.364 72.54 0 141.439-15.592 203.527-43.609l-3.123 1.26c3.262-1.617 7.102-2.562 11.164-2.562 0.125 0 0.25 0.001 0.375 0.003h-0.019c14.138 0 25.6 11.462 25.6 25.6v0 646.4c-0.138 8.749-4.643 16.416-11.426 20.933l-0.094 0.059zM76.8 192.512v542.208c48.067 19.803 103.871 31.301 162.36 31.301 5.923 0 11.818-0.118 17.683-0.351l-0.843 0.027c124.672 0 185.088-32.512 200.704-42.496 4.812-3.037 10.373-5.873 16.194-8.2l0.702-0.248v-535.552c-61.71 22.439-132.943 35.415-207.206 35.415-3.655 0-7.303-0.031-10.943-0.094l0.548 0.007c-2.516 0.034-5.487 0.053-8.462 0.053-60.697 0-119.514-8.053-175.439-23.15l4.701 1.081zM947.2 192.512c-51.225 14.016-110.041 22.069-170.738 22.069-2.975 0-5.946-0.019-8.913-0.058l0.451 0.005c-3.092 0.055-6.739 0.087-10.394 0.087-74.263 0-145.496-12.976-211.554-36.783l4.348 1.369v535.552c6.523 2.575 12.084 5.411 17.331 8.703l-0.435-0.255c15.616 9.984 76.8 42.496 200.704 42.496 5.023 0.207 10.918 0.325 16.84 0.325 58.489 0 114.293-11.498 165.274-32.356l-2.914 1.055z" />
<glyph unicode="&#xe946;" glyph-name="caretDown" d="M865.28 675.84l-332.8-443.648c-4.72-6.246-12.134-10.24-20.48-10.24s-15.76 3.994-20.433 10.176l-0.047 0.064-332.8 443.648c-3.196 4.225-5.12 9.568-5.12 15.36 0 14.138 11.462 25.6 25.6 25.6v0h665.6c14.138 0 25.6-11.462 25.6-25.6 0-5.792-1.924-11.135-5.167-15.424l0.047 0.064z" />
<glyph unicode="&#xe947;" glyph-name="caretLeft" d="M727.040 107.52l-443.648 332.8c-6.246 4.72-10.24 12.134-10.24 20.48s3.994 15.76 10.176 20.433l0.064 0.047 443.648 332.8c4.225 3.196 9.568 5.12 15.36 5.12 14.138 0 25.6-11.462 25.6-25.6v-665.6c0-14.138-11.462-25.6-25.6-25.6-5.792 0-11.135 1.924-15.424 5.167l0.064-0.047z" />
<glyph unicode="&#xe948;" glyph-name="caretRight" d="M296.96 814.080l443.648-332.8c6.246-4.72 10.24-12.134 10.24-20.48s-3.994-15.76-10.176-20.433l-0.064-0.047-443.648-332.8c-4.225-3.196-9.568-5.12-15.36-5.12-14.138 0-25.6 11.462-25.6 25.6v0 665.6c0 14.138 11.462 25.6 25.6 25.6 5.792 0 11.135-1.924 15.424-5.167l-0.064 0.047z" />
<glyph unicode="&#xe949;" glyph-name="caretUp" d="M158.72 245.76l332.8 443.648c4.72 6.246 12.134 10.24 20.48 10.24s15.76-3.994 20.433-10.176l0.047-0.064 332.8-443.648c3.196-4.225 5.12-9.568 5.12-15.36 0-14.138-11.462-25.6-25.6-25.6v0h-665.6c-14.138 0-25.6 11.462-25.6 25.6 0 5.792 1.924 11.135 5.167 15.424l-0.047-0.064z" />
<glyph unicode="&#xe94a;" glyph-name="crown" d="M972.8 723.712l-259.328-184.064-179.2 327.936c-4.416 8.064-12.844 13.441-22.528 13.441s-18.112-5.377-22.461-13.308l-0.067-0.133-179.2-327.936-258.816 184.064c-4.109 2.933-9.234 4.69-14.769 4.69-14.138 0-25.6-11.462-25.6-25.6 0-1.658 0.158-3.28 0.459-4.85l-0.026 0.16 113.92-665.6c2.151-12.145 12.626-21.251 25.228-21.251 0.131 0 0.261 0.001 0.392 0.003h723.692c0.111-0.002 0.241-0.003 0.372-0.003 12.602 0 23.077 9.105 25.205 21.096l0.023 0.155 113.92 665.6c0.431 1.759 0.679 3.778 0.679 5.856 0 14.138-11.462 25.6-25.6 25.6-6.21 0-11.904-2.211-16.337-5.89l0.042 0.034z" />
<glyph unicode="&#xe94b;" glyph-name="designmarket" d="M883.2 972.8h-742.4c-42.415 0-76.8-34.385-76.8-76.8v0-870.4c0-42.415 34.385-76.8 76.8-76.8v0h742.4c42.415 0 76.8 34.385 76.8 76.8v0 870.4c0 42.415-34.385 76.8-76.8 76.8v0zM883.2 25.6h-742.4v755.2h742.4zM140.8 844.8v51.2h742.4v-51.2zM217.6 396.8h588.8c14.138 0 25.6 11.462 25.6 25.6v0 268.8c0 14.138-11.462 25.6-25.6 25.6v0h-588.8c-14.138 0-25.6-11.462-25.6-25.6v0-268.8c0-14.138 11.462-25.6 25.6-25.6v0zM256 652.8h512v-192h-512zM217.6 76.8h204.8c14.138 0 25.6 11.462 25.6 25.6v0 204.8c0 14.138-11.462 25.6-25.6 25.6v0h-204.8c-14.138 0-25.6-11.462-25.6-25.6v0-204.8c0-14.138 11.462-25.6 25.6-25.6v0zM256 268.8h128v-128h-128zM537.6 332.8h268.8c14.138 0 25.6-11.462 25.6-25.6v-12.8c0-14.138-11.462-25.6-25.6-25.6h-268.8c-14.138 0-25.6 11.462-25.6 25.6v12.8c0 14.138 11.462 25.6 25.6 25.6zM537.6 236.8h268.8c14.138 0 25.6-11.462 25.6-25.6v-12.8c0-14.138-11.462-25.6-25.6-25.6h-268.8c-14.138 0-25.6 11.462-25.6 25.6v12.8c0 14.138 11.462 25.6 25.6 25.6zM537.6 140.8h268.8c14.138 0 25.6-11.462 25.6-25.6v-12.8c0-14.138-11.462-25.6-25.6-25.6h-268.8c-14.138 0-25.6 11.462-25.6 25.6v12.8c0 14.138 11.462 25.6 25.6 25.6z" />
<glyph unicode="&#xe94c;" glyph-name="gear" d="M939.52 545.792l-69.12 13.824c-9.092 1.912-16.303 8.443-19.148 16.971l-0.052 0.181c-5.331 16.228-11.049 29.858-17.69 42.94l0.794-1.724c-1.712 3.342-2.715 7.29-2.715 11.473 0 5.262 1.587 10.152 4.309 14.22l-0.058-0.093 41.472 62.208c2.65 3.968 4.23 8.847 4.23 14.095 0 7.099-2.889 13.523-7.556 18.16l-84.481 84.481c-4.639 4.668-11.062 7.558-18.161 7.558-5.248 0-10.127-1.579-14.188-4.288l0.093 0.059-62.464-41.472c-3.975-2.663-8.865-4.251-14.127-4.251-4.183 0-8.131 1.003-11.618 2.782l0.145-0.067c-11.358 5.847-24.988 11.565-39.079 16.276l-2.137 0.62c-8.77 2.94-15.325 10.259-17.125 19.293l-0.027 0.163-13.824 69.12c-2.463 11.771-12.756 20.485-25.084 20.485-0.181 0-0.363-0.002-0.543-0.006h-119.269c-0.154 0.003-0.335 0.005-0.516 0.005-12.328 0-22.621-8.714-25.055-20.319l-0.029-0.167-13.312-69.12c-1.912-9.092-8.443-16.303-16.971-19.148l-0.181-0.052c-16.228-5.331-29.858-11.049-42.94-17.69l1.724 0.794c-3.342-1.712-7.29-2.715-11.473-2.715-5.262 0-10.152 1.587-14.22 4.309l0.093-0.058-62.208 41.216c-3.968 2.65-8.847 4.23-14.095 4.23-7.099 0-13.523-2.889-18.16-7.556l-84.481-84.481c-4.668-4.639-7.558-11.062-7.558-18.161 0-5.248 1.579-10.127 4.288-14.188l-0.059 0.093 41.472-62.208c2.663-3.975 4.251-8.865 4.251-14.127 0-4.183-1.003-8.131-2.782-11.618l0.067 0.145c-5.847-11.358-11.565-24.988-16.276-39.079l-0.62-2.137c-2.897-8.709-10.108-15.24-19.033-17.123l-0.167-0.029-69.376-13.824c-11.771-2.463-20.485-12.756-20.485-25.084 0-0.181 0.002-0.363 0.006-0.543v0.027-119.808c-0.003-0.154-0.005-0.335-0.005-0.516 0-12.328 8.714-22.621 20.319-25.055l0.167-0.029 69.12-12.8c9.092-1.912 16.303-8.443 19.148-16.971l0.052-0.181c5.331-16.228 11.049-29.858 17.69-42.94l-0.794 1.724c1.712-3.342 2.715-7.29 2.715-11.473 0-5.262-1.587-10.152-4.309-14.22l0.058 0.093-41.216-62.208c-2.65-3.968-4.23-8.847-4.23-14.095 0-7.099 2.889-13.523 7.556-18.16l84.481-84.481c4.639-4.668 11.062-7.558 18.161-7.558 5.248 0 10.127 1.579 14.188 4.288l-0.093-0.059 62.208 41.472c3.975 2.663 8.865 4.251 14.127 4.251 4.183 0 8.131-1.003 11.618-2.782l-0.145 0.067c11.358-5.847 24.988-11.565 39.079-16.276l2.137-0.62c8.709-2.897 15.24-10.108 17.123-19.033l0.029-0.167 13.824-69.376c2.463-11.771 12.756-20.485 25.084-20.485 0.181 0 0.363 0.002 0.543 0.006h119.781c0.154-0.003 0.335-0.005 0.516-0.005 12.328 0 22.621 8.714 25.055 20.319l0.029 0.167 12.8 69.12c1.912 9.092 8.443 16.303 16.971 19.148l0.181 0.052c16.228 5.331 29.858 11.049 42.94 17.69l-1.724-0.794c3.342 1.712 7.29 2.715 11.473 2.715 5.262 0 10.152-1.587 14.22-4.309l-0.093 0.058 62.208-41.472c3.968-2.65 8.847-4.23 14.095-4.23 7.099 0 13.523 2.889 18.16 7.556l84.481 84.481c4.668 4.639 7.558 11.062 7.558 18.161 0 5.248-1.579 10.127-4.288 14.188l0.059-0.093-41.472 62.208c-2.663 3.975-4.251 8.865-4.251 14.127 0 4.183 1.003 8.131 2.782 11.618l-0.067-0.145c5.847 11.358 11.565 24.988 16.276 39.079l0.62 2.137c2.897 8.709 10.108 15.24 19.033 17.123l0.167 0.029 69.376 13.824c11.771 2.463 20.485 12.756 20.485 25.084 0 0.181-0.002 0.363-0.006 0.543v-0.027 119.552c0 0.002 0 0.003 0 0.005 0 12.326-8.711 22.618-20.313 25.053l-0.167 0.029zM512 332.8c-70.692 0-128 57.308-128 128s57.308 128 128 128c70.692 0 128-57.308 128-128v0c0-70.692-57.308-128-128-128v0z" />
<glyph unicode="&#xe94d;" glyph-name="graph" d="M934.4 89.6h-793.6v793.6c0 14.138-11.462 25.6-25.6 25.6v0h-25.6c-14.138 0-25.6-11.462-25.6-25.6v0-844.8c0-14.138 11.462-25.6 25.6-25.6v0h844.8c14.138 0 25.6 11.462 25.6 25.6v0 25.6c0 14.138-11.462 25.6-25.6 25.6v0zM217.6 460.8h140.8c14.138 0 25.6-11.462 25.6-25.6v-268.8c0-14.138-11.462-25.6-25.6-25.6h-140.8c-14.138 0-25.6 11.462-25.6 25.6v268.8c0 14.138 11.462 25.6 25.6 25.6zM473.6 588.8h140.8c14.138 0 25.6-11.462 25.6-25.6v-396.8c0-14.138-11.462-25.6-25.6-25.6h-140.8c-14.138 0-25.6 11.462-25.6 25.6v396.8c0 14.138 11.462 25.6 25.6 25.6zM729.6 780.8h140.8c14.138 0 25.6-11.462 25.6-25.6v-588.8c0-14.138-11.462-25.6-25.6-25.6h-140.8c-14.138 0-25.6 11.462-25.6 25.6v588.8c0 14.138 11.462 25.6 25.6 25.6z" />
<glyph unicode="&#xe94e;" glyph-name="item" d="M1001.216 779.52l-230.656 116.48c-0.807 0.105-1.741 0.165-2.688 0.165s-1.881-0.060-2.797-0.176l0.109 0.011-73.984 19.712c-1.784 0.444-3.833 0.699-5.94 0.699-10.701 0-19.868-6.566-23.694-15.888l-0.062-0.171c-24.263-59.223-81.46-100.181-148.224-100.181s-123.961 40.957-147.837 99.117l-0.387 1.064c-3.887 9.493-13.055 16.059-23.756 16.059-2.108 0-4.156-0.255-6.116-0.735l0.175 0.036-76.544-19.712c-0.807 0.105-1.741 0.165-2.688 0.165s-1.881-0.060-2.797-0.176l0.109 0.011-230.4-115.456c-8.713-4.209-14.616-12.977-14.616-23.124 0-4.473 1.147-8.678 3.163-12.336l-0.067 0.132 107.264-214.784c4.306-8.43 12.927-14.102 22.873-14.102 2.242 0 4.417 0.288 6.489 0.83l-0.178-0.040 82.432 20.48-36.352-509.952c-0.040-0.536-0.063-1.161-0.063-1.792 0-14.138 11.462-25.6 25.6-25.6 0.022 0 0.044 0 0.066 0h584.957c0.019 0 0.041 0 0.063 0 14.138 0 25.6 11.462 25.6 25.6 0 0.631-0.023 1.256-0.068 1.875l0.005-0.083-36.608 509.952 82.432-20.736c1.894-0.502 4.069-0.79 6.311-0.79 9.946 0 18.567 5.672 22.806 13.958l0.067 0.145 107.264 214.784c1.781 3.398 2.827 7.424 2.827 11.693 0 9.941-5.667 18.559-13.946 22.8l-0.144 0.067z" />
<glyph unicode="&#xe94f;" glyph-name="list" d="M409.6 844.8h460.8c14.138 0 25.6-11.462 25.6-25.6v-76.8c0-14.138-11.462-25.6-25.6-25.6h-460.8c-14.138 0-25.6 11.462-25.6 25.6v76.8c0 14.138 11.462 25.6 25.6 25.6zM409.6 204.8h460.8c14.138 0 25.6-11.462 25.6-25.6v-76.8c0-14.138-11.462-25.6-25.6-25.6h-460.8c-14.138 0-25.6 11.462-25.6 25.6v76.8c0 14.138 11.462 25.6 25.6 25.6zM409.6 524.8h460.8c14.138 0 25.6-11.462 25.6-25.6v-76.8c0-14.138-11.462-25.6-25.6-25.6h-460.8c-14.138 0-25.6 11.462-25.6 25.6v76.8c0 14.138 11.462 25.6 25.6 25.6zM153.6 844.8h76.8c14.138 0 25.6-11.462 25.6-25.6v-76.8c0-14.138-11.462-25.6-25.6-25.6h-76.8c-14.138 0-25.6 11.462-25.6 25.6v76.8c0 14.138 11.462 25.6 25.6 25.6zM153.6 204.8h76.8c14.138 0 25.6-11.462 25.6-25.6v-76.8c0-14.138-11.462-25.6-25.6-25.6h-76.8c-14.138 0-25.6 11.462-25.6 25.6v76.8c0 14.138 11.462 25.6 25.6 25.6zM153.6 524.8h76.8c14.138 0 25.6-11.462 25.6-25.6v-76.8c0-14.138-11.462-25.6-25.6-25.6h-76.8c-14.138 0-25.6 11.462-25.6 25.6v76.8c0 14.138 11.462 25.6 25.6 25.6z" />
<glyph unicode="&#xe950;" glyph-name="app-message" d="M512 910.080c-285.696 1.28-500.736-193.28-499.2-449.28-0.012-1.16-0.018-2.531-0.018-3.903 0-112.289 43.869-214.332 115.402-289.925l-0.184 0.196c4.298-4.568 6.939-10.738 6.939-17.525 0-2.888-0.478-5.665-1.36-8.255l0.053 0.18-49.152-135.424c-0.913-2.522-1.441-5.433-1.441-8.468 0-14.138 11.462-25.6 25.6-25.6 3.865 0 7.529 0.856 10.814 2.39l-0.157-0.066 162.304 75.008c2.946 1.282 6.378 2.027 9.984 2.027s7.038-0.746 10.15-2.091l-0.166 0.064c60.57-24.004 130.745-37.922 204.17-37.922 2.202 0 4.4 0.013 6.596 0.037l-0.334-0.003c285.696-1.28 500.736 192 499.2 449.28s-213.504 450.56-499.2 449.28zM307.2 396.8c-35.346 0-64 28.654-64 64s28.654 64 64 64c35.346 0 64-28.654 64-64v0c0-35.346-28.654-64-64-64v0zM512 396.8c-35.346 0-64 28.654-64 64s28.654 64 64 64c35.346 0 64-28.654 64-64v0c0-35.346-28.654-64-64-64v0zM716.8 396.8c-35.346 0-64 28.654-64 64s28.654 64 64 64c35.346 0 64-28.654 64-64v0c0-35.346-28.654-64-64-64v0z" />
<glyph unicode="&#xe951;" glyph-name="mobile" d="M755.2 972.8h-486.4c-42.415 0-76.8-34.385-76.8-76.8v0-870.4c-0.005-0.319-0.007-0.696-0.007-1.073 0-37.897 27.448-69.382 63.549-75.661l0.459-0.066h512c36.559 6.345 64.007 37.83 64.007 75.727 0 0.377-0.003 0.754-0.008 1.13l0.001-0.057v870.4c0 42.415-34.385 76.8-76.8 76.8v0zM742.4 883.2v-678.4h-460.8v678.4zM512 12.8c-35.346 0-64 28.654-64 64s28.654 64 64 64c35.346 0 64-28.654 64-64v0c0-35.346-28.654-64-64-64v0z" />
<glyph unicode="&#xe952;" glyph-name="page" d="M883.2 972.8h-742.4c-42.415 0-76.8-34.385-76.8-76.8v0-870.4c0-42.415 34.385-76.8 76.8-76.8v0h742.4c42.415 0 76.8 34.385 76.8 76.8v0 870.4c0 42.415-34.385 76.8-76.8 76.8v0zM883.2 896v-51.2h-742.4v51.2zM140.8 25.6v742.4h742.4v-742.4zM281.6 520.448h460.8c14.138 0 25.6-11.462 25.6-25.6v-25.6c0-14.138-11.462-25.6-25.6-25.6h-460.8c-14.138 0-25.6 11.462-25.6 25.6v25.6c0 14.138 11.462 25.6 25.6 25.6zM281.6 691.2h204.8c14.138 0 25.6-11.462 25.6-25.6v-25.6c0-14.138-11.462-25.6-25.6-25.6h-204.8c-14.138 0-25.6 11.462-25.6 25.6v25.6c0 14.138 11.462 25.6 25.6 25.6zM281.6 349.952h460.8c14.138 0 25.6-11.462 25.6-25.6v-25.6c0-14.138-11.462-25.6-25.6-25.6h-460.8c-14.138 0-25.6 11.462-25.6 25.6v25.6c0 14.138 11.462 25.6 25.6 25.6zM281.6 179.2h460.8c14.138 0 25.6-11.462 25.6-25.6v-25.6c0-14.138-11.462-25.6-25.6-25.6h-460.8c-14.138 0-25.6 11.462-25.6 25.6v25.6c0 14.138 11.462 25.6 25.6 25.6z" />
<glyph unicode="&#xe953;" glyph-name="shop" d="M986.368 776.96l-18.688 93.44c0 4.352-1.792 8.448-2.56 12.544-0.666 4.041-1.735 7.654-3.19 11.063l0.118-0.311c-3.555 7.271-10.251 12.534-18.272 14.055l-0.16 0.025c-7.168 0-14.592 0-22.016 0h-819.2c-7.424 0-14.848 0-22.272 0-8.181-1.546-14.877-6.809-18.365-13.929l-0.067-0.151c-1.26-3.107-2.245-6.731-2.786-10.498l-0.030-0.254c0-4.096-1.536-8.192-2.56-12.288v0l-18.688-93.696-19.712-98.048-17.92-90.112c-0.002-0.228-0.002-0.498-0.002-0.768 0-8.793 0.933-17.367 2.706-25.63l-0.144 0.799c1.732-7.526 3.754-13.938 6.214-20.129l-0.326 0.929c0-1.536 0-3.072 0-4.608 3.139-6.786 6.213-12.409 9.603-17.813l-0.387 0.661 2.816-4.864c4.804-7.296 9.946-13.658 15.639-19.48l-0.023 0.024c5.724-5.686 12.003-10.827 18.745-15.33l0.455-0.286 4.864-2.816h2.304v-441.088c0-14.138 11.462-25.6 25.6-25.6v0h844.8c14.138 0 25.6 11.462 25.6 25.6v0 440.32c0.346-0.066 0.745-0.105 1.152-0.105s0.806 0.038 1.192 0.111l-0.040-0.006 4.864 2.816c7.197 4.789 13.476 9.93 19.207 15.623l-0.007-0.007c5.67 5.798 10.812 12.16 15.319 18.979l0.297 0.477 2.816 4.864c3.003 4.743 6.077 10.366 8.807 16.182l0.409 0.97c0 1.536 0 3.072 1.28 4.608 2.725 5.529 5.335 12.148 7.424 18.994l0.256 0.974c1.629 7.465 2.562 16.039 2.562 24.832 0 0.27-0.001 0.54-0.003 0.81v-0.042zM883.968 832h12.032l13.056-70.4c11.008-59.136 20.992-118.528 32.768-177.408-1.628-11.188-6.094-21.113-12.638-29.306l0.094 0.122c-8.276-9.526-19.915-15.941-33.050-17.387l-0.23-0.021c-3.156-0.611-6.785-0.96-10.496-0.96s-7.34 0.349-10.857 1.017l0.361-0.057c-8.656 1.099-16.52 3.44-23.775 6.859l0.479-0.203c-19.372 10.134-34.874 25.389-45.032 43.984l-0.28 0.56v3.84l-24.064 239.36zM704.768 832l24.576-243.2c-11.784-17.881-27.692-32.148-46.418-41.668l-0.686-0.316c-6.233-2.864-13.514-5.251-21.101-6.8l-0.659-0.112c-5.114-1.522-10.989-2.398-17.069-2.398-1.2 0-2.392 0.034-3.574 0.101l0.164-0.007c-1.245-0.089-2.697-0.14-4.161-0.14-5.806 0-11.426 0.799-16.755 2.292l0.436-0.104c-8.246 1.661-15.527 4.048-22.402 7.173l0.642-0.261c-19.436 9.904-35.348 24.258-46.822 41.78l-0.282 0.46c-0.059 0.652-0.093 1.41-0.093 2.176s0.034 1.524 0.1 2.273l-0.007-0.097v238.848zM474.368 832v-239.104c0.059-0.652 0.093-1.41 0.093-2.176s-0.034-1.524-0.1-2.273l0.007 0.097c-11.784-17.881-27.692-32.148-46.418-41.668l-0.686-0.316c-6.233-2.864-13.514-5.251-21.101-6.8l-0.659-0.112c-4.957-1.427-10.65-2.248-16.536-2.248-1.749 0-3.481 0.072-5.193 0.215l0.224-0.015c-1.245-0.089-2.697-0.14-4.161-0.14-5.806 0-11.426 0.799-16.755 2.292l0.436-0.104c-8.246 1.661-15.527 4.048-22.402 7.173l0.642-0.261c-19.436 9.904-35.348 24.258-46.822 41.78l-0.282 0.46 25.6 243.456zM115.968 761.6l12.032 70.4h113.664l-23.808-239.36v-3.84c-10.474-19.052-25.97-34.219-44.72-44.006l-0.592-0.282c-6.776-3.216-14.64-5.557-22.905-6.615l-0.391-0.041c-3.4-0.71-7.307-1.116-11.309-1.116-3.512 0-6.951 0.313-10.29 0.912l0.351-0.052c-13.558 1.334-25.399 7.775-33.74 17.347l-0.052 0.061c-6.45 8.071-10.916 17.996-12.505 28.855l-0.039 0.329c12.032 58.88 20.736 118.272 32.768 177.408zM883.968 89.6h-115.968v281.6c0 14.138-11.462 25.6-25.6 25.6v0h-140.8c-14.138 0-25.6-11.462-25.6-25.6v0-281.6h-435.2v371.2c13.474 0.911 26.030 3.466 37.916 7.476l-1.052-0.308c17.874 5.796 33.41 13.8 47.337 23.889l-0.489-0.337c11.759 9.326 22.091 19.577 31.196 30.858l0.292 0.374c9.338-11.406 19.672-21.416 31.046-30.138l0.442-0.326c13.426-9.811 28.97-17.822 45.685-23.227l1.163-0.325c13.47-5.072 29.039-8.008 45.295-8.008 1.537 0 3.067 0.026 4.591 0.078l-0.221-0.006h7.424c15.036 0.334 29.336 3.026 42.693 7.719l-0.965-0.295c17.878 5.73 33.422 13.741 47.316 23.877l-0.468-0.325c11.977 9.169 22.474 19.26 31.745 30.405l0.255 0.315c9.393-11.25 19.718-21.17 31.031-29.87l0.457-0.338c13.426-9.811 28.97-17.822 45.685-23.227l1.163-0.325c12.392-4.398 26.692-7.090 41.573-7.421l0.155-0.003 7.936-0.512c1.302-0.046 2.833-0.072 4.369-0.072 16.255 0 31.825 2.936 46.207 8.307l-0.912-0.299c17.878 5.73 33.422 13.741 47.316 23.877l-0.468-0.325c11.815 9.048 22.15 19.057 31.227 30.136l0.261 0.328c9.402-11.343 19.728-21.345 31.044-30.132l0.444-0.332c13.438-9.752 28.974-17.756 45.661-23.216l1.187-0.336c10.776-3.91 23.291-6.721 36.278-7.893l0.586-0.043zM281.6 396.8h140.544c14.138 0 25.6-11.462 25.6-25.6v-140.544c0-14.138-11.462-25.6-25.6-25.6h-140.544c-14.138 0-25.6 11.462-25.6 25.6v140.544c0 14.138 11.462 25.6 25.6 25.6z" />
<glyph unicode="&#xe954;" glyph-name="shopbag" d="M833.536 693.248c-1.094 13.229-12.1 23.552-25.518 23.552-0.029 0-0.058 0-0.086 0h-129.532v76.8c0 91.9-74.5 166.4-166.4 166.4s-166.4-74.5-166.4-166.4v0-76.8h-130.048c-0.024 0-0.053 0-0.082 0-13.418 0-24.424-10.323-25.512-23.46l-0.006-0.092-59.648-716.8c-0.052-0.613-0.082-1.327-0.082-2.048 0-14.138 11.462-25.6 25.6-25.6 0.029 0 0.058 0 0.086 0h712.188c0.024 0 0.053 0 0.082 0 14.138 0 25.6 11.462 25.6 25.6 0 0.721-0.030 1.435-0.088 2.141l0.006-0.092zM422.4 793.6c0 49.485 40.115 89.6 89.6 89.6s89.6-40.115 89.6-89.6v0-76.8h-179.2z" />
<glyph unicode="&#xe955;" glyph-name="tipiSquare" d="M523.008 265.984l-99.328-132.352h194.048c-1.394 0.922-2.579 2.025-3.559 3.294l-0.025 0.034zM512 620.8l-180.992-329.472 82.176-124.416 98.816 131.84c2.741 3.385 6.869 5.554 11.507 5.632h0.013c0.008 0 0.017 0 0.026 0 4.772 0 8.979-2.418 11.463-6.095l0.031-0.049 90.88-128 76.8 105.216zM908.8 908.8h-793.6c-28.277 0-51.2-22.923-51.2-51.2v0-793.6c0-28.277 22.923-51.2 51.2-51.2v0h793.6c28.277 0 51.2 22.923 51.2 51.2v0 793.6c0 28.277-22.923 51.2-51.2 51.2v0zM852.224 89.6c-5.019-8.493-14.128-14.1-24.546-14.1-0.371 0-0.74 0.007-1.107 0.021l0.053-0.002h-630.272c-0.102-0.001-0.222-0.002-0.343-0.002-15.835 0-28.672 12.837-28.672 28.672 0 4.97 1.265 9.645 3.49 13.72l-0.075-0.15 313.344 570.368s-2.048 0-2.816 2.304l-85.248 105.216c-3.95 4.85-6.343 11.106-6.343 17.92 0 15.733 12.754 28.487 28.487 28.487 8.918 0 16.88-4.098 22.103-10.515l0.041-0.052 34.816-43.008v27.904c0 15.694 12.722 28.416 28.416 28.416s28.416-12.722 28.416-28.416v-32l31.232 43.008c5.243 7.052 13.549 11.572 22.912 11.572 15.723 0 28.468-12.746 28.468-28.468 0-6.36-2.086-12.233-5.61-16.972l0.054 0.076-71.424-99.84 315.136-574.72c2.192-3.935 3.483-8.633 3.483-13.631 0-5.362-1.485-10.377-4.066-14.656l0.071 0.128zM315.392 263.168l-71.168-129.536h157.184zM637.184 136.704c-0.838-1.214-1.858-2.234-3.033-3.046l-0.039-0.026h145.408l-62.72 113.408z" />
<glyph unicode="&#xe956;" glyph-name="tool" d="M503.296 960.256c-4.541 7.561-12.696 12.542-22.016 12.544h-20.48c-7.069 0-12.8-5.731-12.8-12.8v0-179.2h-128v179.2c0 7.069-5.731 12.8-12.8 12.8v0h-20.48c-9.366-0.058-17.533-5.137-21.951-12.679l-0.065-0.121-97.28-166.4c-2.156-3.672-3.43-8.087-3.43-12.8s1.274-9.128 3.495-12.921l-0.065 0.121 97.28-166.4c4.483-7.663 12.65-12.742 22.008-12.8h33.288v-374.016c-45.946-23.815-76.8-71.012-76.8-125.414 0-77.762 63.038-140.8 140.8-140.8s140.8 63.038 140.8 140.8c0 54.402-30.854 101.598-76.017 125.044l-0.783 0.37v374.016h33.28c9.366 0.058 17.533 5.137 21.951 12.679l0.065 0.121 97.28 166.4c2.156 3.672 3.43 8.087 3.43 12.8s-1.274 9.128-3.495 12.921l0.065-0.121zM384 51.2c-21.208 0-38.4 17.192-38.4 38.4s17.192 38.4 38.4 38.4c21.208 0 38.4-17.192 38.4-38.4v0c0-21.208-17.192-38.4-38.4-38.4v0zM864 448c0 7.069-5.731 12.8-12.8 12.8v0h-44.8v321.536c2.224 1.242 4.038 2.974 5.34 5.059l0.036 0.061 30.72 55.808c2.076 3.617 3.3 7.952 3.3 12.572 0 2.827-0.458 5.546-1.304 8.088l0.052-0.181-33.536 100.864c-1.982 4.843-6.658 8.193-12.117 8.193-0.060 0-0.12 0-0.181-0.001h-61.431c-5.642-0.010-10.444-3.596-12.259-8.613l-0.029-0.091-33.792-100.352c-0.794-2.362-1.252-5.081-1.252-7.908 0-4.621 1.224-8.955 3.366-12.698l-0.066 0.125 30.72-55.808c1.338-2.146 3.152-3.878 5.302-5.082l0.074-0.038v-321.536h-44.544c-7.069 0-12.8-5.731-12.8-12.8v0-12.8c0-0.003 0-0.006 0-0.010 0-11.914 5.574-22.525 14.257-29.37l0.079-0.060c-8.499-4.232-14.254-12.826-14.336-22.773v-408.587c0-14.138 11.462-25.6 25.6-25.6v0h140.8c14.138 0 25.6 11.462 25.6 25.6v0 409.6c-0.082 9.958-5.837 18.552-14.188 22.717l-0.148 0.067c8.507 6.697 14.010 16.882 14.335 28.363l0.001 0.053z" />
<glyph unicode="&#xe957;" glyph-name="angleDown" d="M493.824 219.136l-392.96 392.96c-4.601 4.627-7.444 11.006-7.444 18.048s2.844 13.421 7.446 18.049l54.271 54.271c4.627 4.601 11.006 7.444 18.048 7.444s13.421-2.844 18.049-7.446l320.767-320.511 320.768 320.512c4.627 4.601 11.006 7.444 18.048 7.444s13.421-2.844 18.049-7.446l54.271-54.271c4.601-4.627 7.444-11.006 7.444-18.048s-2.844-13.421-7.446-18.049l-392.959-392.959c-4.64-4.677-11.070-7.572-18.176-7.572s-13.536 2.895-18.174 7.571l-0.002 0.002z" />
<glyph unicode="&#xe958;" glyph-name="angleLeft" d="M663.296 49.664l-392.96 392.96c-4.677 4.64-7.572 11.070-7.572 18.176s2.895 13.536 7.571 18.174l392.962 392.962c4.627 4.601 11.006 7.444 18.048 7.444s13.421-2.844 18.049-7.446l54.271-54.271c4.601-4.627 7.444-11.006 7.444-18.048s-2.844-13.421-7.446-18.049l-320.511-320.767 320.512-320.768c4.601-4.627 7.444-11.006 7.444-18.048s-2.844-13.421-7.446-18.049l-54.271-54.271c-4.627-4.601-11.006-7.444-18.048-7.444s-13.421 2.844-18.049 7.446l0.001-0.001z" />
<glyph unicode="&#xe959;" glyph-name="angleRight" d="M324.608 49.664l-54.272 54.272c-4.601 4.627-7.444 11.006-7.444 18.048s2.844 13.421 7.446 18.049l320.511 320.767-320.512 320.768c-4.601 4.627-7.444 11.006-7.444 18.048s2.844 13.421 7.446 18.049l54.271 54.271c4.627 4.601 11.006 7.444 18.048 7.444s13.421-2.844 18.049-7.446l392.959-392.959c4.677-4.64 7.572-11.070 7.572-18.176s-2.895-13.536-7.571-18.174l-392.962-392.962c-4.627-4.601-11.006-7.444-18.048-7.444s-13.421 2.844-18.049 7.446l0.001-0.001z" />
<glyph unicode="&#xe95a;" glyph-name="angleUp" d="M832.768 219.136l-320.768 320.512-320.768-320.512c-4.627-4.601-11.006-7.444-18.048-7.444s-13.421 2.844-18.049 7.446l-54.271 54.271c-4.601 4.627-7.444 11.006-7.444 18.048s2.844 13.421 7.446 18.049l392.959 392.959c4.64 4.677 11.070 7.572 18.176 7.572s13.536-2.895 18.174-7.571l392.962-392.962c4.601-4.627 7.444-11.006 7.444-18.048s-2.844-13.421-7.446-18.049l-54.271-54.271c-4.627-4.601-11.006-7.444-18.048-7.444s-13.421 2.844-18.049 7.446l0.001-0.001z" />
</font>
</defs>
</svg>
